Today is a free download without charge Download

Смертельная гонка 3: Ад / Death Race: Inferno (Роэль Рейн / Roel Reiné) [2012.., США, Боевик, Триллер, Криминал, DVD9]

Reply to topic
 
Author
Message

Meshanik ®

Gender:

Longevity: 8 years 10 months

Posts: 3866

Location: Los Angeles

Торрент-статистика

Post 17-Feb-2013 11:01

[Quote]

Смертельная гонка 3: Ад / Death Race: Inferno- Русское название: Смертельная гонка 3
Оригинальное название: Death Race: Inferno
Год выпуска: 2012
Страна: США
Жанр: Боевик, Триллер, Криминал
Продолжительность: 01:40:55
Субтитры: Вшитые отключаемые
Язык субтитров: Русский, английский, турецкий, эстонский, латышский, литовский, итальянский, немецкий, болгарский, греческий, румынский-Дата мировой премьеры: 22 января 2013
Дата выхода DVD релиза: 14 февраля 2013, «Двадцатый Век Фокс СНГ»
Дата выхода Blu-Ray релиза: 14 февраля 2013, «Двадцатый Век Фокс СНГ»-Режиссер: Роэль Рейн / Roel Reiné
Продюсер: Пол У. С. Андерсон, Джереми Болт, Майк Эллиот
В ролях: Дэнни Трехо (Danny Trejo), Винг Реймз (Ving Rhames), Дюгрэй Скотт (Dougray Scott), Люк Госс (Luke Goss), Танит Феникс (Tanit Phoenix), Робин Шоу (Robin Shou), Фредерик Колер (Frederick Koehler), Таня ван Граан (Tanya van Graan), Лэнгли Кирквуд (Langley Kirkwood), Шон Майкл (Sean Michae-Описание фильма:
Осужденный полицейский-убийца Карл Лукас, он же Франкенштейн, суперзвезда жестоких тюремных гонок на выживание, известных как Смертельная Гонка. Только одна победа отделяет его от получения свободы для себя и своей команды. Однако теперь Лукас оказался в совершенно новом, ещё более порочном соревновании. Сражаясь против властных закулисных сил и безжалостных противников, Лукас борется, чтобы спасти себя и свою команду в адской гонке в пустыне Калахари и получить свободу.- -Качество видео: DVD9
Видеокодек: MPEG-2
Битрейт видео: ~7388 Кбит/сек
Размер кадра: [email protected]
Аудиокодек: AC3 5.1
Битрейт аудио:
1. AC3, 6 ch, 384 Кбит/с - английский
2. AC3, 6 ch, 384 Кбит/с - немецкий
3. AC3, 6 ch, 384 Кбит/с - итальянский
4. AC3, 6 ch, 384 Кбит/с - русский
5. AC3, 6 ch, 384 Кбит/с - турецкий
-

Дополнительно на диске

Код:
Отсутствует
-

MediaInfo

Общее
Полное имя : G:\Smertelnaya.Gonka.3.2013.DVD9\VIDEO_TS\VTS_04_1.VOB
Формат : MPEG-PS
Размер файла : 1024 Мбайт
Продолжительность : 15 м.
Общий поток : 9497 Кбит/сек
Видео
Идентификатор : 224 (0xE0)
Формат : MPEG Video
Версия формата : Version 2
Профиль формата : [email protected]
Параметр BVOP формата : Да
Параметр матрицы формата : По умолчанию
Продолжительность : 15 м.
Вид битрейта : Переменный
Битрейт : 7388 Кбит/сек
Номинальный битрейт : 9800 Кбит/сек
Ширина : 720 пикс.
Высота : 576 пикс.
Соотношение сторон : 16:9
Частота кадров : 25,000 кадр/сек
Стандарт вещания : PAL
Цветовое пространство : YUV
Подвыборка цветности : 4:2:0
Битовая глубина : 8 бит
Тип развёртки : Чересстрочная
Порядок развёртки : Верхнее поле первое
Метод сжатия : С потерями
Бит/(Пиксели*Кадры) : 0.713
Размер потока : 797 Мбайт (78%)
Аудио #1
Идентификатор : 189 (0xBD)-128 (0x80)
Формат : AC-3
Формат/Информация : Audio Coding 3
Расширение режима : CM (complete main)
Режим смешивания : DVD-Video
Продолжительность : 15 м.
Вид битрейта : Постоянный
Битрейт : 384 Кбит/сек
Канал(ы) : 6 канала(ов)
Расположение каналов : Front: L C R, Side: L R, LFE
Частота : 48,0 КГц
Битовая глубина : 16 бит
Метод сжатия : С потерями
Размер потока : 41,4 Мбайт (4%)
Аудио #2
Идентификатор : 189 (0xBD)-129 (0x81)
Формат : AC-3
Формат/Информация : Audio Coding 3
Расширение режима : CM (complete main)
Режим смешивания : DVD-Video
Продолжительность : 15 м.
Вид битрейта : Постоянный
Битрейт : 384 Кбит/сек
Канал(ы) : 6 канала(ов)
Расположение каналов : Front: L C R, Side: L R, LFE
Частота : 48,0 КГц
Битовая глубина : 16 бит
Метод сжатия : С потерями
Размер потока : 41,4 Мбайт (4%)
Аудио #3
Идентификатор : 189 (0xBD)-130 (0x82)
Формат : AC-3
Формат/Информация : Audio Coding 3
Расширение режима : CM (complete main)
Режим смешивания : DVD-Video
Продолжительность : 15 м.
Вид битрейта : Постоянный
Битрейт : 384 Кбит/сек
Канал(ы) : 6 канала(ов)
Расположение каналов : Front: L C R, Side: L R, LFE
Частота : 48,0 КГц
Битовая глубина : 16 бит
Метод сжатия : С потерями
Размер потока : 41,4 Мбайт (4%)
Аудио #4
Идентификатор : 189 (0xBD)-131 (0x83)
Формат : AC-3
Формат/Информация : Audio Coding 3
Расширение режима : CM (complete main)
Режим смешивания : DVD-Video
Продолжительность : 15 м.
Вид битрейта : Постоянный
Битрейт : 384 Кбит/сек
Канал(ы) : 6 канала(ов)
Расположение каналов : Front: L C R, Side: L R, LFE
Частота : 48,0 КГц
Битовая глубина : 16 бит
Метод сжатия : С потерями
Размер потока : 41,4 Мбайт (4%)
Аудио #5
Идентификатор : 189 (0xBD)-132 (0x84)
Формат : AC-3
Формат/Информация : Audio Coding 3
Расширение режима : CM (complete main)
Режим смешивания : DVD-Video
Продолжительность : 15 м.
Вид битрейта : Постоянный
Битрейт : 384 Кбит/сек
Канал(ы) : 6 канала(ов)
Расположение каналов : Front: L C R, Side: L R, LFE
Частота : 48,0 КГц
Битовая глубина : 16 бит
Метод сжатия : С потерями
Размер потока : 41,4 Мбайт (4%)
Меню
-

DVDInfo

Title: HITACHI
Size: 7.20 Gb ( 7 544 872 KBytes ) - DVD-9
Enabled regions: 1, 2, 3, 4, 5, 6, 7, 8
VTS_01 :
Play Length: 00:00:25
Video: PAL 16:9 (720x576) VBR, Auto Pan&Scan
Audio:
English (Dolby AC3, 6 ch)
VTS_02 :
Play Length: 00:00:14
Video: PAL 16:9 (720x576) VBR, Auto Pan&Scan
Audio:
English (Dolby AC3, 6 ch)
VTS_03 :
Play Length:
Video: PAL 16:9 (720x576) VBR, Auto Pan&Scan
VTS_04 :
Play Length: 01:40:55
Video: PAL 16:9 (720x576) VBR, Auto Pan&Scan
Audio:
English (Dolby AC3, 6 ch)
Deutsch (Dolby AC3, 6 ch)
Italiano (Dolby AC3, 6 ch)
Russian (Dolby AC3, 6 ch)
Turkish (Dolby AC3, 6 ch)
Subtitles:
English
Deutsch
Italiano
Russian
Turkish
Bulgarian
Greek
Romanian
Estonian
Latvian
Lithuanian
Deutsch
Italiano
Russian
Turkish
Menu Video:
PAL 16:9 (720x576) VBR
Auto Letterboxed
Menu Subtitles:
Not specified
Menu English Language Unit :
Root Menu
Subpicture Menu
Audio Menu
Angle menu
Chapter (PTT) Menu
-

Скриншоты меню

   
-

Скриншоты

       
-
Other forum [Profile] [PM]
Display posts from previous:    
Reply to topic

The time now is: Today 11:58

All times are GMT + 3 Hours



You cannot post new topics in this forum
You cannot reply to topics in this forum
You cannot edit your posts in this forum
You cannot delete your posts in this forum
You cannot vote in polls in this forum
You cannot attach files in this forum
You cannot download files in this forum