Today is a free download without charge Download

Коротышка / Смешной размер / Fun Size (Джош Шварц / Josh Schwartz) [2012, США, комедия, BDRip 720p] VO + Sub Rus + Original Eng

Reply to topic
 
Author
Message

Omen ®

Longevity: 8 years 5 months

Posts: 181087

Торрент-статистика

Post 16-Feb-2013 22:56

[Quote]

Коротышка / Смешной размер / Fun Size
Страна: США
Жанр: комедия
Год выпуска: 2012
Продолжительность: 01:26:23
Перевод: Одноголосый закадровый Andi
Cубтитры: русские
Оригинальная аудиодорожка: английский
Режиссер: Джош Шварц / Josh Schwartz
В ролях: Виктория Джастис, Томас Манн, Джейн Леви, Челси Хендлер, Томас МакДонелл, Осрик Чау, Томас Миддледич, Джексон Николл, Эна Гастейер, Джош Пенс, Керри Кенни-Сильвер, Джонни Ноксвилл и др.
Описание: Фильм, который укладывается в одну ночь, расскажет историю девушки-подростка, которая теряет своего маленького братика на Хэллоуин. Звезда школьной команды политических дебатов, в которого влюбится героиня, поможет ей в поисках брата.
Семпл

M.I.

Complete name : K:\fun.size.2012.(RG AVI-AVC).mkv
Format : Matroska
Format version : Version 2
File size : 4.48 GiB
Duration : 1h 26mn
Overall bit rate : 7 430 Kbps
Encoded date : UTC 2013-02-16 12:07:17
Writing application : mkvmerge v5.5.0 ('Healer') built on Apr 6 2012 21:43:24
Writing library : libebml v1.2.3 + libmatroska v1.3.0
Video
ID : 1
Format : AVC
Format/Info : Advanced Video Codec
Format profile : [email protected]
Format settings, CABAC : Yes
Format settings, ReFrames : 5 frames
Codec ID : V_MPEG4/ISO/AVC
Duration : 1h 26mn
Bit rate : 5 729 Kbps
Width : 1 280 pixels
Height : 544 pixels
Display aspect ratio : 2.35:1
Frame rate mode : Constant
Frame rate : 23.976 fps
Color space : YUV
Chroma subsampling : 4:2:0
Bit depth : 8 bits
Scan type : Progressive
Bits/(Pixel*Frame) : 0.343
Stream size : 3.37 GiB (75%)
Writing library : x264 core 129 r2245 bc13772
Encoding settings : cabac=1 / ref=5 / deblock=1:0:0 / analyse=0x3:0x133 / me=umh / subme=7 / psy=1 / psy_rd=1.00:0.00 / mixed_ref=1 / me_range=16 / chroma_me=1 / trellis=1 / 8x8dct=1 / cqm=0 / deadzone=21,11 / fast_pskip=0 / chroma_qp_offset=-2 / threads=12 / lookahead_threads=2 / sliced_threads=0 / nr=0 / decimate=1 / interlaced=0 / bluray_compat=0 / constrained_intra=0 / bframes=3 / b_pyramid=2 / b_adapt=1 / b_bias=0 / direct=1 / weightb=1 / open_gop=0 / weightp=2 / keyint=250 / keyint_min=23 / scenecut=40 / intra_refresh=0 / rc_lookahead=40 / rc=2pass / mbtree=1 / bitrate=5729 / ratetol=1.0 / qcomp=0.60 / qpmin=0 / qpmax=69 / qpstep=4 / cplxblur=20.0 / qblur=0.5 / ip_ratio=1.40 / aq=1:1.00
Language : English
Default : Yes
Forced : No
Audio #1
ID : 2
Format : AC-3
Format/Info : Audio Coding 3
Mode extension : CM (complete main)
Format settings, Endianness : Big
Codec ID : A_AC3
Duration : 1h 26mn
Bit rate mode : Constant
Bit rate : 192 Kbps
Channel(s) : 2 channels
Channel positions : Front: L R
Sampling rate : 48.0 KHz
Bit depth : 16 bits
Compression mode : Lossy
Stream size : 119 MiB (3%)
Title : одноголосный лю,ит. Andi
Language : Russian
Default : Yes
Forced : No
Audio #2
ID : 3
Format : DTS
Format/Info : Digital Theater Systems
Mode : 16
Format settings, Endianness : Big
Codec ID : A_DTS
Duration : 1h 26mn
Bit rate mode : Constant
Bit rate : 1 509 Kbps
Channel(s) : 6 channels
Channel positions : Front: L C R, Side: L R, LFE
Sampling rate : 48.0 KHz
Bit depth : 24 bits
Compression mode : Lossy
Stream size : 932 MiB (20%)
Title : DTS
Language : English
Default : No
Forced : No
Text #1
ID : 4
Format : UTF-8
Codec ID : S_TEXT/UTF8
Codec ID/Info : UTF-8 Plain Text
Language : Russian
Default : No
Forced : No
Text #2
ID : 5
Format : UTF-8
Codec ID : S_TEXT/UTF8
Codec ID/Info : UTF-8 Plain Text
Title : English Forced
Language : English
Default : Yes
Forced : No
Тип релиза: BDRip 720p
Контейнер: MKV
Видео кодек: MPEG 4 AVC (H.264)
Аудио кодек: AC3, DTS
Видео: 1280*544, 23.976 fps, 5 729 Kbps
Аудио: AC-3, 192 Kbps, 2CH, 48.0 KHz- Любительский (одноголосный) Andi
Аудио 2: DTS, 1509 Kbps, 6CH, 48.0 KHz-English
Субтитры: русские, английские

Скриншоты

Other forum [Profile] [PM]
Similar theme
Forum Topic Author Torrent Replies Last Post
./templates/default/images/folder_dl.gif Фантастика, фэнтези, ужасы, мистика Сердитый Коротыш | Цикл «Жернова войны» [2 книги] (2019) [FB2] }{@R0N
1 | 0

0 | 497

6

2019-01-27 16:57
}{@R0N Latest
./templates/default/images/folder_dl.gif # Документальные фильмы и телепередачи «Аджика» экстремальный клуб (Сергей Целиков) [2019 г., Драма, короткометражный, WEB-DL 1080p] SaluteMe2
1 | 0

5 | 2001

0

2021-02-26 12:38
SaluteMe2 Latest
Display posts from previous:    
Reply to topic

The time now is: Today 11:54

All times are GMT + 3 Hours



You cannot post new topics in this forum
You cannot reply to topics in this forum
You cannot edit your posts in this forum
You cannot delete your posts in this forum
You cannot vote in polls in this forum
You cannot attach files in this forum
You cannot download files in this forum