Today is a free download without charge Download

На чёрный день (Михаил Каменецкий) [1993, Кукольный мультфильм, SATRip]

Reply to topic
 
Author
Message

Omen ®

Longevity: 7 years 11 months

Posts: 181087

Торрент-статистика

Post 16-Feb-2013 22:56

[Quote]

На чёрный день
Страна: CCCР
Жанр: Кукольный мультфильм
Продолжительность: 00:08:19
Год выпуска: 1991
Русские субтитры: нет
Режиссёр: Михаил Каменецкий
Роли озвучивали: Всеволод Ларионов, Борис Новиков, Роман Филиппов, Зинаида Нарышкина, Т. Шатилова, Лия Ахеджакова, Ольга Громова
Описание: Современная сказка для малышей — второй фильм из цикла картин для малышей с участием оригинального, забавного персонажа — кудрявого ёжика, родившегося в семье обычных ежей. На сей раз, благодаря кудрявому ёжику, в лес возвращаются утраченные было красота, гармония, добрые отношения.
Доп. информация:
оператор Юрий Каменецкий
композитор Игорь Космачев
звукооператор Владимир Кутузов
редактор Наталья Абрамова
монтажёр Г. Филатова
куклы и декорации Маслов Владимир, Конобеев Владимир, Аксенов Юрий, Лярская Надежда, Петров Валерий, Знаменская Светлана, Гришин Виктор, Колтунов Михаил, Масаинов Олег, Лютинская Лилиана, Максимов Александр, Барковская Наталия, Гринберг Наталия, Беляев Александр, Молева Нина, Алисов Владимир
Качество: SATRip
Формат: AVI
Видео: 640x480 (1.33:1), 25 fps, XviD build 50 ~2221 kbps avg, 0.29 bit/pixel
Аудио: 48 kHz, MPEG Layer 3, 2 ch, ~192.00 kbps avg
Субтитры: нет

Подробные технические данные

Format : AVIFormat/Info : Audio Video InterleaveFile size : 144 MiBDuration : 8mn 19sOverall bit rate : 2 424 KbpsWriting application : VirtualDubMod 1.5.10.2 (build 2540/release)Writing library : VirtualDubMod build 2540/release
VideoID : 0Format : MPEG-4 VisualFormat profile : Advanced [email protected] settings, BVOP : 1Format settings, QPel : NoFormat settings, GMC : No warppointsFormat settings, Matrix : Default (MPEG)Codec ID : XVIDCodec ID/Hint : XviDDuration : 8mn 19sBit rate : 2 222 KbpsWidth : 640 pixelsHeight : 480 pixelsDisplay aspect ratio : 4:3Frame rate : 25.000 fpsColor space : YUVChroma subsampling : 4:2:0Bit depth : 8 bitsScan type : ProgressiveCompression mode : LossyBits/(Pixel*Frame) : 0.289Stream size : 132 MiB (92%)Writing library : XviD 1.2.1 (UTC 2008-12-04)
AudioID : 1Format : MPEG AudioFormat version : Version 1Format profile : Layer 3Codec ID : 55Codec ID/Hint : MP3Duration : 8mn 19sBit rate mode : ConstantBit rate : 192 KbpsChannel(s) : 2 channelsSampling rate : 48.0 KHzCompression mode : LossyStream size : 11.4 MiB (8%)Alignment : Aligned on interleavesInterleave, duration : 40 ms (1.00 video frame)Interleave, preload duration : 504 ms

Скриншоты

Other forum [Profile] [PM]
Display posts from previous:    
Reply to topic

The time now is: Today 18:49

All times are GMT + 3 Hours



You cannot post new topics in this forum
You cannot reply to topics in this forum
You cannot edit your posts in this forum
You cannot delete your posts in this forum
You cannot vote in polls in this forum
You cannot attach files in this forum
You cannot download files in this forum