Today is a free download without charge Download

Самый самый самый самый (Василий Ливанов) [1966, Рисованный мультфильм, DVDRip]

Reply to topic
 
Author
Message

Omen ®

Longevity: 7 years 11 months

Posts: 181087

Торрент-статистика

Post 16-Feb-2013 22:56

[Quote]

Самый самый самый самый
Страна: СССР
Жанр: Рисованный мультфильм
Продолжительность: 00:18:37
Год выпуска: 1966
Русские субтитры: нет
Режиссёр: Василий Ливанов
Роли озвучивали: Валентина Сперантова (Львёнок), Василий Корецкий, И. Тарханов, М. Рыба, Александр Баранов, В. Туманова, Рина Зеленая, Л. Земляникина, Клара Румянова, Владимир Балашов, Нина Поставничева,
Елена Понсова
Описание: О маленьком Львенке, который вообразил себя самым умным, сильным, храбрым, красивым, но вскоре понял, что хвастовство до добра не доводит
Доп. информация:
сценарист Василий Ливанов
художник-постановщик Макс Жеребчевский
xудожники В. Нефедова, Ирина Светлица, Л. Рыбчевская
художники-мультипликаторы Владимир Пекарь, Яна Вольская, Рената Миренкова, Леонид Носырев, Антонина Алешина, Анатолий Солин, Е. Вершинина, Юрий Кузюрин, Сергей Дежкин, С. Жутовская, Олег Сафронов, Виктор Шевков, Ольга Орлова
оператор Михаил Друян
директор А. Зорина
композитор Геннадий Гладков
звукооператор Георгий Мартынюк
редактор Аркадий Снесарев
Качество: DVDRip
Формат: AVI
Видео: 704x528 (1.33:1), 25 fps, XviD build 65 ~2148 kbps avg, 0.23 bit/pixel
Аудио: 48 kHz, AC3 Dolby Digital, 2/0 (L,R) ch, ~224.00 kbps avg
Субтитры: нет

Подробные технические данные

Format : AVIFormat/Info : Audio Video InterleaveFile size : 317 MiBDuration : 18mn 37sOverall bit rate : 2 383 KbpsWriting application : VirtualDubModRus 1.5.10.2 (build 2542/release)Copyright : rutracker.orgComment : DVDRip by dvdss
VideoID : 0Format : MPEG-4 VisualFormat profile : Advanced [email protected] settings, BVOP : 2Format settings, QPel : NoFormat settings, GMC : No warppointsFormat settings, Matrix : CustomCodec ID : XVIDCodec ID/Hint : XviDDuration : 18mn 37sBit rate : 2 149 KbpsWidth : 704 pixelsHeight : 528 pixelsDisplay aspect ratio : 5:4Original display aspect ratio : 4:3Frame rate : 25.000 fpsColor space : YUVChroma subsampling : 4:2:0Bit depth : 8 bitsScan type : ProgressiveCompression mode : LossyBits/(Pixel*Frame) : 0.231Stream size : 286 MiB (90%)Writing library : XviD 65
AudioID : 1Format : AC-3Format/Info : Audio Coding 3Mode extension : CM (complete main)Format settings, Endianness : BigCodec ID : 2000Duration : 18mn 36sBit rate mode : ConstantBit rate : 224 KbpsChannel(s) : 2 channelsChannel positions : Front: L RSampling rate : 48.0 KHzBit depth : 16 bitsCompression mode : LossyStream size : 29.8 MiB (9%)Alignment : Aligned on interleavesInterleave, duration : 40 ms (1.00 video frame)Interleave, preload duration : 512 ms

Скриншоты

Other forum [Profile] [PM]
Display posts from previous:    
Reply to topic

The time now is: Today 11:12

All times are GMT + 3 Hours



You cannot post new topics in this forum
You cannot reply to topics in this forum
You cannot edit your posts in this forum
You cannot delete your posts in this forum
You cannot vote in polls in this forum
You cannot attach files in this forum
You cannot download files in this forum