Today is a free download without charge Download

Зимний вальс [4 серии из 4] (2012) SATRip

Reply to topic
 
Author
Message

UndegraundMen ®

Longevity: 8 years 9 months

Posts: 25145

Торрент-статистика

Post 16-Feb-2013 22:24

[Quote]

-Зимний вальс [4 серии из 4] (2012) SATRip- Русское название: Зимний вальс
Производство: Россия
Год выпуска: 2012
Жанр: Мелодрама
Перевод: Не требуется (Русский)

Дата российской премьеры: 16 февраля 2013
Режиссер: Вадим Арапов, Вячеслав Падалка
Актеры: Анна Полупанова, Дмитрий Орлов (III), Алёна Ивченко, Елена Дубровская, Олег Вебер, Анна Носатова, Святослав Астрамович
Описание фильма:
У Анны хорошая работа, любящий муж и прекрасная дочка. Но все рушится в одно мгновенье, когда ей переходит дорогу лучшая подруга… С работы Анну с треском увольняют, муж уходит, и кажется, что ей, оставшейся одной с маленькой дочерью, помощи ждать неоткуда.Не все благополучно и в семье Владимира, подполковника в отставке. Потерявшая ребенка пара мучительно расстается.Но невзгоды и предательства не ломают героев. И их случайная встреча дает надежду на хоть и позднюю, но такую настоящую любовь.
Продолжительность: 4 х ~ 00:42:26 серия
Качество видео: SATRip
Видеокодек: DivX 5
Битрейт видео: ~1600 Kbit/s
Размер кадра: 704 х 400
Аудиокодек: MP3, 2.0
Битрейт аудио: 128 Kbit/s

MediaInfo

Общее
Полное имя : D:\Торренты\Зимний вальс.2012.SATRip\Зимний вальс .01.avi
Формат : AVI
Формат/Информация : Audio Video Interleave
Размер файла : 536 Мбайт
Продолжительность : 42 м.
Общий поток : 1745 Кбит/сек
Видео
Идентификатор : 0
Формат : MPEG-4 Visual
Профиль формата : [email protected]
Параметр BVOP формата : Нет
Параметр QPel формата : Нет
Параметр GMC формата : Без точки перехода
Параметр матрицы формата : Default (H.263)
Идентификатор кодека : DX50
Идентификатор кодека/Подсказка : DivX 5
Продолжительность : 42 м.
Битрейт : 1600 Кбит/сек
Ширина : 704 пикс.
Высота : 400 пикс.
Соотношение сторон : 16:9
Частота кадров : 25,000 кадр/сек
Цветовое пространство : YUV
Подвыборка цветности : 4:2:0
Битовая глубина : 8 бит
Тип развёртки : Прогрессивная
Метод сжатия : С потерями
Бит/(Пиксели*Кадры) : 0.227
Размер потока : 491 Мбайт (92%)
Библиотека кодирования : XviD 1.2.1 (UTC 2008-12-04)
Аудио
Идентификатор : 1
Формат : MPEG Audio
Версия формата : Version 1
Профиль формата : Layer 3
Режим : Joint stereo
Идентификатор кодека : 55
Идентификатор кодека/Подсказка : MP3
Продолжительность : 42 м.
Вид битрейта : Постоянный
Битрейт : 128 Кбит/сек
Каналы : 2 канала
Частота : 48,0 КГц
Метод сжатия : С потерями
Размер потока : 39,3 Мбайт (7%)
Выравнивание : Соединение по промежуткам
Продолжительность промежутка : 24 мс. (0,60 видеокадр)
Библиотека кодирования : LAME3.98.2
Скриншоты:
           
Время раздачи: 24/7 по возможности
Other forum [Profile] [PM]
Display posts from previous:    
Reply to topic

The time now is: Today 06:09

All times are GMT + 3 Hours



You cannot post new topics in this forum
You cannot reply to topics in this forum
You cannot edit your posts in this forum
You cannot delete your posts in this forum
You cannot vote in polls in this forum
You cannot attach files in this forum
You cannot download files in this forum