Today is a free download without charge Download

Страна в SHOPe (1 серия из ...) (2013) SATRip [Обновляемая]

Reply to topic
 
Author
Message

UndegraundMen ®

Longevity: 8 years 9 months

Posts: 25145

Торрент-статистика

Post 16-Feb-2013 06:44

[Quote]

-Страна в SHOPe (1-2 серии из ...) (2013) SATRip- Русское название: Страна в SHOPe
Год выпуска: 2013
Производство: Россия, Funky Piictures для ОАО "ТНТ-Телесеть"
Жанр: Комедия, скетчком
Режиссер: Артем Аксененко, Макс Василенко
Актеры: Сергей Светлаков, Марина Бочкарёва, Андрей Стецюк, Татьяна Дорофеева, Евгений Шевченко
Описание фильма:
Раньше люди ходили в дома культуры, музеи и библиотеки. Сейчас у нас есть шикарные торговые центры. Кого только тут не встретишь: учителя, звезды шоу-бизнеса, гости из провинции, аниматоры, охранники, креативные директора, постоянные покупатели и даже сказочные существа - и все это в одном месте в одно время!
Смешные истории из жизни большого торгового центра, его покупателях и тех, кто предлагает «ненавязчивый» сервис.-
Дата российской премьеры: 15 февраля 2013-Продолжительность: ~ 00:20:00 серия
Качество видео: SATRip
Видеокодек: XviD
Битрейт видео: ~ 1650 Кбит/сек
Размер кадра: 720x400
Аудио: Русский, МР3, 2 ch, 128 Кбит/с

Внимание! Раздача ведётся путём добавления новых серий. Описание обновления торрента:

Внимание!
Раздача ведётся путём добавления новых серий; при каждом добавлении создётся новый торрент. Чтобы начать докачку новой серии, пользователям необходимо сделать следующее:
(1) остановить скачивание,
(2) удалить старый торрент у себя из клиента (старые серии удалять не надо),
(3) скачать новый торрент и запустить его у себя в клиенте вместо старого, при этом указать клиенту путь в старую папку куда и должно происходить скачивание новых серий.
Ваш клиент при этом должен произвести хеширование (проверку) старой папки (если не производит сам - помогите ему сделать это), и будет докачивать только те серии которых у вас ещё нет. Старые серии при этом не удаляются, а продолжают раздаваться!
Eсли вы уже удалили старые серии, то предотвратить повторную закачку старых серий можно, отжав галочку в соответсвующих местах при запуске нового торрента. По возможности, желательно не удалять старые серии как можно дольше чтобы релизёр не столько продолжал раздавать старые серии, а смог сконцентрироваться на новых.

MediaInfo

Код:
Общее
Полное имя                               : E:\Раздачи\Обновляемые\Страна в SHOPe\Strana.v.SHOPe.(01.Seriya).avi
Формат                                   : AVI
Формат/Информация                        : Audio Video Interleave
Размер файла                             : 241 Мбайт
Продолжительность                        : 18 м.
Общий поток                              : 1778 Кбит/сек
Библиотека кодирования                   : VirtualDub build 34807/release
Видео
Идентификатор                            : 0
Формат                                   : MPEG-4 Visual
Профиль формата                          : Advanced [email protected]
Параметр BVOP формата                    : 2
Параметр QPel формата                    : Нет
Параметр GMC формата                     : Без точки перехода
Параметр матрицы формата                 : Default (H.263)
Режим смешивания                         : Сжатый битовый поток
Идентификатор кодека                     : XVID
Идентификатор кодека/Подсказка           : XviD
Продолжительность                        : 18 м.
Битрейт                                  : 1640 Кбит/сек
Ширина                                   : 720 пикселей
Высота                                   : 400 пикселей
Соотношение сторон                       : 16:9
Частота кадров                           : 25,000 кадров/сек
Цветовое пространство                    : YUV
Субдискретизация насыщенности            : 4:2:0
Битовая глубина                          : 8 бит
Тип развёртки                            : Прогрессивная
Метод сжатия                             : С потерями
Бит/(Пиксели*Кадры)                      : 0.228
Размер потока                            : 222 Мбайт (92%)
Библиотека кодирования                   : XviD 64
Аудио
Идентификатор                            : 1
Формат                                   : MPEG Audio
Версия формата                           : Version 1
Профиль формата                          : Layer 3
Режим                                    : Joint stereo
Расширение режима                        : MS Stereo
Идентификатор кодека                     : 55
Идентификатор кодека/Подсказка           : MP3
Продолжительность                        : 18 м.
Вид битрейта                             : Постоянный
Битрейт                                  : 128 Кбит/сек
Каналы                                   : 2 канала
Частота                                  : 48,0 КГц
Метод сжатия                             : С потерями
Размер потока                            : 17,4 Мбайт (7%)
Выравнивание                             : Разделение по промежуткам
Продолжительность промежутка             : 40  мс. (1,00 видеокадр)
Время предзагрузки промежутка            : 500  мс.
Скриншоты:
         
         -Время раздачи: 9.00 - 23.00 (по мере возможности...)
Other forum [Profile] [PM]
Similar theme
Forum Topic Author Torrent Replies Last Post
./templates/default/images/folder_dl.gif Rock (Rock) Пикник - Чужестранец - 2014, FLAC (tracks), lossless sergej644
1 | 0

0 | 1813

14

2014-10-29 21:58
sergej644 Latest
./templates/default/images/folder_dl.gif Обучающее видео Николай Ягодкин | Техника запоминания 100 иностранных слов в час (2013) DVDRip [H.264] Omen
1 | 0

0 | 4454

58

2017-01-14 01:00
Omen Latest
./templates/default/images/folder_dl.gif Новинки (HD|DVD|BD|WEB|TV|SAT|PDTV|-Rip) Страна чудес Вилли / Willy's Wonderland (Кевин Льюис / Kevin Lewis) [2021, США, ужасы, комедия, WEB-DLRip] Dub (iTunes) K15
1 | 0

0 | 113

0

2021-11-21 17:36
K15 Latest
Display posts from previous:    
Reply to topic

The time now is: Today 04:47

All times are GMT + 3 Hours



You cannot post new topics in this forum
You cannot reply to topics in this forum
You cannot edit your posts in this forum
You cannot delete your posts in this forum
You cannot vote in polls in this forum
You cannot attach files in this forum
You cannot download files in this forum