Today is a free download without charge Download

Воздушные приключения / Those Magnificent Men in Their Flying Machines or How I Flew from London to Paris in 25 hours 11 minutes (Кен Эннакин / Ken Annakin) [1965, комедия, приключения, BDRip 1080p] MVO + Dub + 3xAVO + Original + Sub (Rus, Eng)

Reply to topic
 
Author
Message

Omen ®

Longevity: 8 years 5 months

Posts: 181087

Торрент-статистика

Post 15-Feb-2013 22:24

[Quote]

Страна: Великобритания
Жанр: комедия, приключения
Год выпуска: 1964
Продолжительность: 02:18:04
Перевод:
- Профессиональный (многоголосый, закадровый), Film Prestige
- Советский дубляж
- Авторский (Гаврилов Андрей, Михалев Алексей, Володарский Леонид)
Субтитры: русские, английские, китайские, французские, венгерские, румынские, испанские, шведские

Режиссер: Кен Эннакин / Ken Annakin
В ролях: Стюарт Уитман, Сара Майлз, Джеймс Фокс, Альберто Сорди, Роберт Морли, Герт Фребе, Жан-Пьер Кассель, Ирина Демик, Эрик Сайкс, Ред Скелтон, Терри-Томас, Бенни Хилл, Юдзиро Исихара, Флора Робсон, Карл Михаэль Фоглер, Сэм Уонамейкер, Эрик Баркер, Морис Денэм, Фред Эмни, Гордон Джексон, Дави Кэй, Джон Ле Мезюрье, Джереми Ллойд, Зена Маршалл, Милисент Мартин, Эрик Полманн, Марджори Роудс, Норман Россингтон, Уильям Раштон, Грэм Старк, Джимми Томпсон, Майкл Трубшоу, Тони Хэнкок, Джеймс Робертсон Джастис, Ферди Мэйн, Джералд Кэмпион, Сиселия Кортнидж

Описание:Одна из самых знаменитых комедий в истории кино с участием главных комических актеров Европы шестидесятых, блестяще обыгравших национальные особенности своих персонажей. Англия, 1910 год, начало эры авиации. Лорд Ронсли объявляет о проведении первых международных авиагонок по маршруту: Лондон – Париж. Влюбленный в его дочь Ричард Мэйс должен доказать превосходство англичан не только на морях, но и в воздухе. Однако, летчики со всего света – жуликоватый английский лорд, индюкоподобный немецкий полковник, любвеобильный француз, ковбойского вида американец и многодетный итальянский граф – все они на своих неуклюжих аэропланах так же готовы побороться за главный приз – 10000 фунтов стерлингов...

Качество видео: BDRip (1080p)
Формат видео: MKV
Видео: MPEG-4 AVC, 1920x880, 23.976 fps, 5700 kbps
Аудио №1: Russian; AC3; 48.0 KHz; 192 Kbps; CBR; 2 ch |Профессиональный (многоголосый, закадровый), Film Prestige|
Аудио №2: Russian; AC3; 48.0 KHz; 192 Kbps; CBR; 2 ch |Советский дубляж|
Аудио №3: Russian; AC3; 48.0 KHz; 192 Kbps; CBR; 2 ch |Авторский (Гаврилов Андрей)|
Аудио №4: Russian; AC3; 48.0 KHz; 192 Kbps; CBR; 2 ch |Авторский (Михалев Алексей)|
Аудио №5: Russian; AC3; 48.0 KHz; 192 Kbps; CBR; 2 ch |Авторский (Володарский Леонид)|
Аудио №6: English; AC3; 48.0 KHz; 384 Kbps; CBR; 5.1 ch |Оригинал|
Аудио №7: English; AAC; 48.0 KHz; ~216 Kbps; VBR; 2 ch |Оригинал|

MediaInfo

Код:
Общее
Полное имя : E:VideoThose.Magnificent.Men.in.Their.Flying.Machines.1965.BDRip.1080p.mkv
Формат : Matroska
Версия формата : Version 2
Размер файла : 7,01 Гбайт
Продолжительность : 2 ч. 18 м.
Общий поток : 7269 Кбит/сек
Дата кодирования : UTC 2013-02-15 14:33:59
Программа кодирования : mkvmerge v6.0.0 ('Coming Up For Air') built on Jan 20 2013 09:52:00
Библиотека кодирования : libebml v1.3.0 + libmatroska v1.4.0
Видео
Идентификатор : 1
Формат : AVC
Формат/Информация : Advanced Video Codec
Профиль формата : [email protected]
Параметр CABAC формата : Да
Параметр ReFrames формата : 4 кадра
Идентификатор кодека : V_MPEG4/ISO/AVC
Продолжительность : 2 ч. 18 м.
Номинальный битрейт : 5700 Кбит/сек
Ширина : 1920 пикселей
Высота : 880 пикселей
Соотношение сторон : 2,2:1
Режим частоты кадров : Постоянный
Частота кадров : 23,976 кадра/сек
Цветовое пространство : YUV
Субдискретизация насыщенности : 4:2:0
Битовая глубина : 8 бит
Тип развёртки : Прогрессивная
Бит/(Пиксели*Кадры) : 0.141
Заголовок : Those Magnificent Men in Their Flying Machines 1965 1080p HighCode
Библиотека кодирования : x264 core 120
Настройки программы : cabac=1 / ref=4 / deblock=1:-4:-3 / analyse=0x3:0x133 / me=umh / subme=10 / psy=1 / psy_rd=0.90:0.00 / mixed_ref=1 / me_range=128 / chroma_me=1 / trellis=2 / 8x8dct=1 / cqm=0 / deadzone=21,11 / fast_pskip=1 / chroma_qp_offset=-2 / threads=12 / sliced_threads=0 / nr=0 / decimate=1 / interlaced=0 / bluray_compat=0 / constrained_intra=0 / bframes=5 / b_pyramid=2 / b_adapt=2 / b_bias=0 / direct=3 / weightb=1 / open_gop=0 / weightp=2 / keyint=240 / keyint_min=24 / scenecut=40 / intra_refresh=0 / rc_lookahead=100 / rc=2pass / mbtree=1 / bitrate=5700 / ratetol=1.0 / qcomp=0.60 / qpmin=3 / qpmax=69 / qpstep=4 / cplxblur=20.0 / qblur=0.5 / ip_ratio=1.40 / aq=1:1.00
Язык : English
Default : Да
Forced : Нет
Основные цвета : BT.709
Характеристики трансфера : BT.709
Коэффициенты матрицы : BT.709
Аудио #1
Идентификатор : 2
Формат : AC-3
Формат/Информация : Audio Coding 3
Расширение режима : CM (complete main)
Параметр Endianness формата : Big
Идентификатор кодека : A_AC3
Продолжительность : 2 ч. 18 м.
Вид битрейта : Постоянный
Битрейт : 192 Кбит/сек
Каналы : 2 канала
Расположение каналов : Front: L R
Частота : 48,0 КГц
Битовая глубина : 16 бит
Метод сжатия : С потерями
Размер потока : 190 Мбайт (3%)
Заголовок : MVO - Film Prestige
Язык : Russian
Default : Да
Forced : Нет
Аудио #2
Идентификатор : 3
Формат : AC-3
Формат/Информация : Audio Coding 3
Расширение режима : CM (complete main)
Параметр Endianness формата : Big
Идентификатор кодека : A_AC3
Продолжительность : 2 ч. 18 м.
Вид битрейта : Постоянный
Битрейт : 192 Кбит/сек
Каналы : 2 канала
Расположение каналов : Front: L R
Частота : 48,0 КГц
Битовая глубина : 16 бит
Метод сжатия : С потерями
Размер потока : 190 Мбайт (3%)
Заголовок : Dub
Язык : Russian
Default : Нет
Forced : Нет
Аудио #3
Идентификатор : 4
Формат : AC-3
Формат/Информация : Audio Coding 3
Расширение режима : CM (complete main)
Параметр Endianness формата : Big
Идентификатор кодека : A_AC3
Продолжительность : 2 ч. 18 м.
Вид битрейта : Постоянный
Битрейт : 192 Кбит/сек
Каналы : 2 канала
Расположение каналов : Front: L R
Частота : 48,0 КГц
Битовая глубина : 16 бит
Метод сжатия : С потерями
Размер потока : 190 Мбайт (3%)
Заголовок : Gavrilov
Язык : Russian
Default : Нет
Forced : Нет
Аудио #4
Идентификатор : 5
Формат : AC-3
Формат/Информация : Audio Coding 3
Расширение режима : CM (complete main)
Параметр Endianness формата : Big
Идентификатор кодека : A_AC3
Продолжительность : 2 ч. 18 м.
Вид битрейта : Постоянный
Битрейт : 192 Кбит/сек
Каналы : 2 канала
Расположение каналов : Front: L R
Частота : 48,0 КГц
Битовая глубина : 16 бит
Метод сжатия : С потерями
Размер потока : 190 Мбайт (3%)
Заголовок : Mikhalyov
Язык : Russian
Default : Нет
Forced : Нет
Аудио #5
Идентификатор : 6
Формат : AC-3
Формат/Информация : Audio Coding 3
Расширение режима : CM (complete main)
Параметр Endianness формата : Big
Идентификатор кодека : A_AC3
Продолжительность : 2 ч. 18 м.
Вид битрейта : Постоянный
Битрейт : 192 Кбит/сек
Каналы : 2 канала
Расположение каналов : Front: L R
Частота : 48,0 КГц
Битовая глубина : 16 бит
Метод сжатия : С потерями
Размер потока : 190 Мбайт (3%)
Заголовок : Volodarskiy
Язык : Russian
Default : Нет
Forced : Нет
Аудио #6
Идентификатор : 7
Формат : AC-3
Формат/Информация : Audio Coding 3
Расширение режима : CM (complete main)
Параметр Endianness формата : Big
Идентификатор кодека : A_AC3
Продолжительность : 2 ч. 18 м.
Вид битрейта : Постоянный
Битрейт : 384 Кбит/сек
Каналы : 6 каналов
Расположение каналов : Front: L C R, Side: L R, LFE
Частота : 48,0 КГц
Битовая глубина : 16 бит
Метод сжатия : С потерями
Размер потока : 379 Мбайт (5%)
Заголовок : AC3 5.1 384 kbps
Язык : English
Default : Нет
Forced : Нет
Аудио #7
Идентификатор : 8
Формат : AAC
Формат/Информация : Advanced Audio Codec
Профиль формата : LC
Идентификатор кодека : A_AAC
Продолжительность : 2 ч. 18 м.
Каналы : 2 канала
Расположение каналов : Front: L R
Частота : 44,1 КГц
Метод сжатия : С потерями
Заголовок : AAC-LC 2 ch vrb ~216 kbps
Язык : English
Default : Нет
Forced : Нет
Текст #1
Идентификатор : 9
Формат : VobSub
Режим смешивания : zlib
Идентификатор кодека : S_VOBSUB
Идентификатор кодека/Информация : The same subtitle format used on DVDs
Заголовок : VobSub PSDH
Язык : English
Default : Нет
Forced : Нет
Текст #2
Идентификатор : 10
Формат : UTF-8
Идентификатор кодека : S_TEXT/UTF8
Идентификатор кодека/Информация : UTF-8 Plain Text
Язык : English
Default : Нет
Forced : Нет
Текст #3
Идентификатор : 11
Формат : UTF-8
Идентификатор кодека : S_TEXT/UTF8
Идентификатор кодека/Информация : UTF-8 Plain Text
Заголовок : Mandarine simple
Язык : Chinese
Default : Нет
Forced : Нет
Текст #4
Идентификатор : 12
Формат : UTF-8
Идентификатор кодека : S_TEXT/UTF8
Идентификатор кодека/Информация : UTF-8 Plain Text
Язык : French
Default : Нет
Forced : Нет
Текст #5
Идентификатор : 13
Формат : UTF-8
Идентификатор кодека : S_TEXT/UTF8
Идентификатор кодека/Информация : UTF-8 Plain Text
Язык : Hungarian
Default : Нет
Forced : Нет
Текст #6
Идентификатор : 14
Формат : UTF-8
Идентификатор кодека : S_TEXT/UTF8
Идентификатор кодека/Информация : UTF-8 Plain Text
Язык : Romanian
Default : Нет
Forced : Нет
Текст #7
Идентификатор : 15
Формат : UTF-8
Идентификатор кодека : S_TEXT/UTF8
Идентификатор кодека/Информация : UTF-8 Plain Text
Язык : Russian
Default : Нет
Forced : Нет
Текст #8
Идентификатор : 16
Формат : UTF-8
Идентификатор кодека : S_TEXT/UTF8
Идентификатор кодека/Информация : UTF-8 Plain Text
Язык : Spanish
Default : Нет
Forced : Нет
Текст #9
Идентификатор : 17
Формат : UTF-8
Идентификатор кодека : S_TEXT/UTF8
Идентификатор кодека/Информация : UTF-8 Plain Text
Язык : Swedish
Default : Нет
Forced : Нет
Меню
00:00:00.000 : en:Ever Hopeful/ Main Titles
00:06:19.517 : en:Just Like a Girl
00:10:17.017 : en:To Rule the Sky
00:15:28.017 : en:The Whole World
00:24:34.517 : en:Improper Introduction
00:27:22.851 : en:No Time
00:29:16.685 : en:The Field
00:34:08.386 : en:Extra Load
00:40:01.020 : en:A Monkey Wrench
00:46:44.354 : en:Runaway Plane
00:54:24.754 : en:Sweet Talk
00:56:46.421 : en:The White Cliffs
01:04:04.088 : en:Old-Fashioned Challenge
01:06:10.588 : en:First Flight
01:11:07.422 : en:Scratched
01:14:20.756 : en:Innovations
01:16:01.423 : en:The Duel
01:19:06.890 : en:Intermission
01:25:34.123 : en:Rivalries
01:30:00.388 : en:The Big Day
01:36:27.521 : en:They're Off!
01:40:53.422 : en:A Couple of Snags
01:47:59.922 : en:First Check Point
01:51:44.656 : en:Crossing the Channel
02:00:26.990 : en:The Third Leg
02:08:21.990 : en:Gay Paree
02:10:54.824 : en:Fifty-Fifty
02:13:59.792 : en:Full Circle/ End Titles

Скриншоты


Other forum [Profile] [PM]
Display posts from previous:    
Reply to topic

The time now is: Today 02:13

All times are GMT + 3 Hours



You cannot post new topics in this forum
You cannot reply to topics in this forum
You cannot edit your posts in this forum
You cannot delete your posts in this forum
You cannot vote in polls in this forum
You cannot attach files in this forum
You cannot download files in this forum