Today is a free download without charge Download

Пока ее не было / While She Was Out (Сьюзэн Монтфорд / Susan Montford) [2008, США, Канада, Германия, Триллер, криминал, драма, BDRip 1080p] Dub + DVO + Sub Rus + Original Eng

Reply to topic
 
Author
Message

Omen ®

Longevity: 8 years 5 months

Posts: 181087

Торрент-статистика

Post 15-Feb-2013 22:24

[Quote]

Пока ее не было / While She Was Out
Страна: США, Канада, Германия
Жанр: Триллер, криминал, драма
Год выпуска: 2008
Продолжительность: 01:25:51
Перевод: Профессиональный (многоголосый закадровый)
Перевод 2: Профессиональный (двухголосый закадровый)
Cубтитры: русские, английские
Оригинальная аудиодорожка: английская
Режиссер: Сьюзэн Монтфорд / Susan Montford
В ролях: Ким Бейсингер, Лукас Хаас, Джэми Старр, Леонард Ву, Луис Чавез, Крэйг Шеффер, Стив Арчер, Вейн Бернард, Лоссен Чэмберс
Описание: Накануне Рождества в людном торговом центре на парковке женщина цепляет записку на машину, занимающую два парковочных места. Четверо головорезов, вернувшись на парковку, обнаруживают бумажку на своей машине и, решив убить «нахалку», начинают жуткую погоню сквозь лес, нисколько не ожидая, что у слабой женщины гораздо больше шансов выжить и победить в борьбе за свою жизнь.

Доп. информация:
Сохранены оригинальные чаптеры как на Blu-ray.
Сэмпл: http://yadi.sk/d/RAVhD_Pq2cviM
Тип релиза: BDRip 1080p
Контейнер: MKV
Видео: x264 ~13900 kbps 1920х1080 / 23.976 fps / 16:9 / High Profile 4.1
Аудио: Russian DD 5.1 48 kHz 384 kbps закадровый (многоголосый)
Аудио 2: Russian DD 5.1 48 kHz 384 kbps закадровый (двухголосый)
Аудио 3: English DD 5.1 48 kHz 640 kbps
Формат субтитров: softsub (SRT)

MediaInfo

D:\Кино HD\While.She.Was.Out.2008.1080p.mkv
General
Unique ID : 204189138309027640473200559196623213116 (0x999D65C7B9605F87B6B2262031EE123C)
Complete name : D:\Кино HD\While.She.Was.Out.2008.1080p.mkv
Format : Matroska
Format version : Version 4 / Version 2
File size : 9.21 GiB
Duration : 1h 25mn
Overall bit rate : 15.4 Mbps
Movie name : Пока ее не было / While She Was Out 2008
Encoded date : UTC 2013-02-15 05:25:00
Writing application : mkvmerge v6.0.0 ('Coming Up For Air') built on Jan 20 2013 09:52:00
Writing library : libebml v1.3.0 + libmatroska v1.4.0
Video #1
ID : 1
Format : AVC
Format/Info : Advanced Video Codec
Format profile : [email protected]
Format settings, CABAC : Yes
Format settings, ReFrames : 4 frames
Codec ID : V_MPEG4/ISO/AVC
Duration : 1h 25mn
Bit rate : 13.9 Mbps
Width : 1 920 pixels
Height : 1 080 pixels
Display aspect ratio : 16:9
Frame rate mode : Constant
Frame rate : 23.976 fps
Color space : YUV
Chroma subsampling : 4:2:0
Bit depth : 8 bits
Scan type : Progressive
Bits/(Pixel*Frame) : 0.281
Stream size : 8.19 GiB (89%)
Title : While.She.Was.Out.Blu-ray.1080p.x264.DD51
Writing library : x264 core 129 r2245 bc13772
Encoding settings : cabac=1 / ref=4 / deblock=1:-2:-2 / analyse=0x3:0x113 / me=umh / subme=10 / psy=1 / psy_rd=1.20:0.20 / mixed_ref=1 / me_range=32 / chroma_me=1 / trellis=2 / 8x8dct=1 / cqm=0 / deadzone=21,11 / fast_pskip=0 / chroma_qp_offset=-3 / threads=9 / lookahead_threads=1 / sliced_threads=0 / nr=0 / decimate=0 / interlaced=0 / bluray_compat=0 / constrained_intra=0 / bframes=5 / b_pyramid=2 / b_adapt=2 / b_bias=0 / direct=3 / weightb=1 / open_gop=0 / weightp=2 / keyint=240 / keyint_min=1 / scenecut=40 / intra_refresh=0 / rc_lookahead=60 / rc=2pass / mbtree=0 / bitrate=13947 / ratetol=1.0 / qcomp=0.60 / qpmin=10 / qpmax=51 / qpstep=4 / cplxblur=20.0 / qblur=0.5 / vbv_maxrate=38000 / vbv_bufsize=38000 / nal_hrd=none / ip_ratio=1.40 / pb_ratio=1.30 / aq=1:1.00
Language : English
Default : Yes
Forced : No
Audio #2
ID : 2
Format : AC-3
Format/Info : Audio Coding 3
Mode extension : CM (complete main)
Format settings, Endianness : Big
Codec ID : A_AC3
Duration : 1h 25mn
Bit rate mode : Constant
Bit rate : 384 Kbps
Channel(s) : 6 channels
Channel positions : Front: L C R, Side: L R, LFE
Sampling rate : 48.0 KHz
Bit depth : 16 bits
Compression mode : Lossy
Stream size : 236 MiB (2%)
Title : Dub [R5]
Language : Russian
Default : Yes
Forced : Yes
Audio #3
ID : 3
Format : AC-3
Format/Info : Audio Coding 3
Mode extension : CM (complete main)
Format settings, Endianness : Big
Codec ID : A_AC3
Duration : 1h 25mn
Bit rate mode : Constant
Bit rate : 384 Kbps
Channel(s) : 6 channels
Channel positions : Front: L C R, Side: L R, LFE
Sampling rate : 48.0 KHz
Bit depth : 16 bits
Compression mode : Lossy
Stream size : 236 MiB (2%)
Language : Russian
Default : No
Forced : No
Audio #4
ID : 4
Format : AC-3
Format/Info : Audio Coding 3
Mode extension : CM (complete main)
Format settings, Endianness : Big
Codec ID : A_AC3
Duration : 1h 25mn
Bit rate mode : Constant
Bit rate : 640 Kbps
Channel(s) : 6 channels
Channel positions : Front: L C R, Side: L R, LFE
Sampling rate : 48.0 KHz
Bit depth : 16 bits
Compression mode : Lossy
Stream size : 393 MiB (4%)
Language : English
Default : No
Forced : No
Text #5
ID : 5
Format : UTF-8
Codec ID : S_TEXT/UTF8
Codec ID/Info : UTF-8 Plain Text
Language : Russian
Default : No
Forced : No
Text #6
ID : 6
Format : UTF-8
Codec ID : S_TEXT/UTF8
Codec ID/Info : UTF-8 Plain Text
Language : English
Default : No
Forced : No
Menu
00:00:00.000 : :Chapter 01
00:10:02.601 : :Chapter 02
00:20:03.201 : :Chapter 03
00:30:03.801 : :Chapter 04
00:40:04.402 : :Chapter 05
00:50:05.001 : :Chapter 06
01:00:05.601 : :Chapter 07
01:10:06.202 : :Chapter 08
01:20:06.801 : :Chapter 09
01:25:50.895 : :Chapter 10

Скриншоты

Other forum [Profile] [PM]
Display posts from previous:    
Reply to topic

The time now is: Today 20:21

All times are GMT + 3 Hours



You cannot post new topics in this forum
You cannot reply to topics in this forum
You cannot edit your posts in this forum
You cannot delete your posts in this forum
You cannot vote in polls in this forum
You cannot attach files in this forum
You cannot download files in this forum