Сегодня идет свободное скачивание без начисления Download

Чёртова дюжина (1970) DVD5

Ответить на тему
 
Автор
Сообщение

UndegraundMen ®

Стаж: 5 лет 7 месяцев

Сообщений: 25860

Торрент-статистика

Пост 15-Фев-2013 15:24

[Цитировать]

-Чёртова дюжина (1970) DVD5- Русское название: Чёртова дюжина
Производство: Одесская киностудия
Год выпуска: 1970
Жанр: Приключения
Описание фильма:
Конец XVIII века. На городской площади Лемберга (ныне - Львов), находящегося под австрийским гнетом, идут торги живым товаром. Это вызывает недовольство прибывших в город казаков во главе со студентом Максимом Зарубой, за что бунтовщиков арестовывают. Проявляя смекалку и находчивость, герои захватывают корабль, атакуют крепость и освобождают невольников.
Режиссер: Виктор Жилин
Актеры: Павел Загребельный, Владимир Ячминский, Лев Прыгунов, Владимир Балон, Володя Лелетко, Петя Ластивка, Гиви Тохадзе, Ярослав Геляс
Продолжительность: 01:18:41

Видеокодек: MPEG-2
Битрейт видео: ~6190 Кбит/сек
Размер кадра: 720x576
Качество видео: DVD5
Аудиокодек: AC3 2.0
Битрейт аудио: 256 Кбит/сек

DVDInfo:

Title: Чертова дюжина
Size: 3.64 Gb ( 3 819 626,00 KBytes ) - DVD-5
Enabled regions: 1, 2, 3, 4, 5, 6, 7, 8
VTS_01 :
Play Length: 00:00:19
Video: PAL 4:3 (720x576) VBR
Audio:
Russian (Dolby AC3, 2 ch)
VTS_02 :
Play Length: 01:18:41
Video: PAL 4:3 (720x576) VBR
Audio:
Russian (Dolby AC3, 2 ch)
* Menus Information *
VIDEO_TS Menu
Video:
PAL 4:3 (720x576) VBR
Russian Language Unit :
Title Menu
VTS_01 Menu
Video:
NTSC 4:3 (720x480) VBR
Auto Pan&Scan, Auto Letterboxed
Language Unit :
Chapter (PTT) Menu
VTS_02 Menu
Video:
PAL 4:3 (720x576) VBR
Russian Language Unit :
Root Menu
Chapter (PTT) Menu

MenuDVD:

   

MediaInfo:

Общее
Полное имя : F:\Толока\!Подготов\Чертова дюжина\Чертова дюжина\VIDEO_TS\VTS_02_1.VOB
Формат : MPEG-PS
Размер файла : 1024 Мбайт
Продолжительность : 21 м.
Режим общего битрейта : Переменный
Общий поток : 6577 Кбит/сек
Видео
Идентификатор : 224 (0xE0)
Формат : MPEG Video
Версия формата : Version 2
Профиль формата : [email protected]
Параметр BVOP формата : Да
Параметр матрицы формата : Выборочная
Параметр GOP формата : Variable
Продолжительность : 21 м.
Вид битрейта : Переменный
Битрейт : 6190 Кбит/сек
Максимальный битрейт : 9500 Кбит/сек
Ширина : 720 пикселей
Высота : 576 пикселей
Соотношение сторон : 4:3
Частота кадров : 25,000 кадров/сек
Стандарт вещания : PAL
Цветовое пространство : YUV
Субдискретизация насыщенности : 4:2:0
Битовая глубина : 8 бит
Тип развёртки : Чересстрочная
Порядок развёртки : Верхнее поле первое
Метод сжатия : С потерями
Бит/(Пиксели*Кадры) : 0.597
Размер потока : 964 Мбайт (94%)
Аудио
Идентификатор : 189 (0xBD)-128 (0x80)
Формат : AC-3
Формат/Информация : Audio Coding 3
Расширение режима : CM (complete main)
Параметр Endianness формата : Big
Режим смешивания : DVD-Video
Продолжительность : 21 м.
Вид битрейта : Постоянный
Битрейт : 256 Кбит/сек
Каналы : 2 канала
Расположение каналов : Front: L R
Частота : 48,0 КГц
Битовая глубина : 16 бит
Метод сжатия : С потерями
Размер потока : 39,9 Мбайт (4%)
Меню
Скриншоты:
         
         
Вне форума [Профиль] [ЛС]
Показать сообщения:    
Ответить на тему

Текущее время: Сегодня 02:52

Часовой пояс: GMT + 3



Вы не можете начинать темы
Вы не можете отвечать на сообщения
Вы не можете редактировать свои сообщения
Вы не можете удалять свои сообщения
Вы не можете голосовать в опросах
Вы не можете прикреплять файлы к сообщениям
Вы не можете скачивать файлы