Today is a free download without charge Download

Зайцев +1 / Серии: 1 - 24 из 24 (Максим Пежемский) [2011, Комедия, DVB]

Reply to topic
 
Author
Message

nsa1977 ®

Gender:

Longevity: 11 years

Posts: 1470

Location: Пенза

Торрент-статистика

Post 26-May-2011 05:59

[Quote]


Зайцев+1
(Серии: 1 - 24 из 24)
Год выпуска: 2011
Производство: Россия "ТНТ-Телесеть"
Жанр: Комедия
Продолжительность: ~ 00:22:00
Субтитры: Отсутствуют
Режиссёр: Максим Пежемский--В ролях: Филипп Котов, Иван Громов, Александр Солдаткин, Алексей Коновалов, Руслан Сасин, Михаил Галустян, Надежда Иванова, Наталья Костенева, Марина Лычкина, Валентин Самохин, Илья Сологуб, Руслан Ягудин, Илья Володин
--Оф сайт --Описание: Что делать, если ты студент-очкарик, влюбленный в самую красивую девушку в институте?
Как добиться внимания красавицы, если у нее есть красавец с баблом и тачкой?
Можно ли управлять своим либидо, если оно сбежало от тебя еще в шесть лет?
И самое главное - где лечат раздвоение личности?
Саша Зайцев – московский студент. Он похож на миллионы своих сверстников, но при этом очень отличается от окружающих. С одной стороны, у Саши есть очки, вид затюканного ботаника и неразделенная любовь. С другой стороны, у Саши - раздвоение личности. Нет, он не разговаривает сам с собой в шапочке из фольги. Просто если Сашу бьют по голове, он превращается в Федора, подозрительно похожего на актера Михаила Галустяна.
Федор, в отличие от Саши, знает, что делать со своими желаниями - немедленно исполнять! Хочется нахамить соседу? Зажать на вечеринке однокурсницу? Угнать джип? Саша никогда бы на это не решился, если бы в нем периодически не пробуждался Федор. По словам режиссера проекта Максима Пежемского, «Зайцев+1» - это история о том, как от человека сбежало его либидо и живет само по себе: «Мы сняли ситком про пубертатный период студентов, где-то задержавшихся во взрослении, но сексуально озабоченных».
Качество: DVB
Формат: MPEG
Видео кодек: MPEG2
Аудио кодек: MPEG1 Layer 2
Видео: MPEG2 Video 720x576 (4:3) 25.00fps 4 802 Kbps, 0.463 bit/pixel
Аудио: MPEG Audio 48000Hz stereo 192 Кбит/сек
-Релиз:

MI

Complete name : F:TORENTRAZDACHIЗайцев+1_DVB_by_CLIPMANЗайцев+1.01_DVB_by_CLIPMAN.mpg
Format : MPEG-PS
File size : 794 MiB
Duration : 21mn 47s
Overall bit rate : 5 096 Kbps
Writing library : (c) 1998-2010 Womble Multimedia, Inc. / MPEG Video Wizard DVD 5.0.0.114 (01/2010) / Apr 20 2010
Video
ID : 224 (0xE0)
Format : MPEG Video
Format version : Version 2
Format profile : [email protected]
Format settings, BVOP : Yes
Format settings, Matrix : Default
Format settings, GOP : M=3, N=30
Duration : 21mn 47s
Bit rate mode : Variable
Bit rate : 4 802 Kbps
Nominal bit rate : 15.0 Mbps
Width : 720 pixels
Height : 576 pixels
Display aspect ratio : 4:3
Frame rate : 25.000 fps
Standard : PAL
Color space : YUV
Chroma subsampling : 4:2:0
Bit depth : 8 bits
Scan type : Progressive
Scan order : Top Field First
Bits/(Pixel*Frame) : 0.463
Stream size : 749 MiB (94%)
Writing library : (c) 1998-2010 Womble Multimedia, Inc. / MPEG Video Wizard DVD 5.0.0.114 (01/2010) / Apr 20 2010
Audio
ID : 192 (0xC0)
Format : MPEG Audio
Format version : Version 1
Format profile : Layer 2
Duration : 21mn 47s
Bit rate mode : Constant
Bit rate : 192 Kbps
Channel(s) : 2 channels
Sampling rate : 48.0 KHz
Stream size : 29.9 MiB (4%)
    

_________________


Last edited by nsa1977 on 2011-05-26 06:11; edited 1 time in total
Other forum [Profile] [PM]
Display posts from previous:    
Reply to topic

The time now is: Today 13:32

All times are GMT + 3 Hours



You cannot post new topics in this forum
You cannot reply to topics in this forum
You cannot edit your posts in this forum
You cannot delete your posts in this forum
You cannot vote in polls in this forum
You cannot attach files in this forum
You cannot download files in this forum