Today is a free download without charge Download

Страсти по Чапаю / Серии: 1- из 12 (Сергей Щербин) [2012, Драма, HDTVRip 720p]

Reply to topic
 
Author
Message

Omen ®

Longevity: 9 years 1 month

Posts: 181086

Торрент-статистика

Post 15-Feb-2013 14:08

[Quote]

Страсти по Чапаю
Год выпуска: 2012
Производство: Централ Партнершип
Жанр: Драма
Продолжительность: ~00:51:00
Режиссёр: Сергей Щербин
В ролях: Сергей Стрельников, Юлия Галкина, Евгения Лютая, Максим Дрозд, Федор Леонов, Софья Хилькова, Дмитрий Щербина, Александр Соколовский, Карина Андоленко, Кирилл Полухин и другие.

Описание: Сериал о малоизвестных деталях биографии легендарного комдива Василия Чапаева — первая любовь в 18 лет и побег из родного села, женитьба и семейная жизнь, Первая мировая война, страстные романы с другими женщинами (дочерью белогвардейского офицера и женой красного коммисара), смертельная вражда, сломанные судьбы и неотвратимая гибель на реке Урал.

Качество: HDTVRip 720p [Рип с HDTV 1080i]
Формат: MKV
Видео кодек: H.264
Аудио кодек: MPEG Audio
Видео: x264, 1280 х 720 (16:9), 25,000 кадр/сек, ~ 3579 Кбит/сек
Аудио: MPEG Audio 48000Hz stereo 192 Кбит/сек
Сторонней рекламы нет!

MediaInfo

ОбщееУникальный идентификатор : 211913009607568799617982185595990790906 (0x9F6CF60964E86602ADEC05E655ED52FA)Полное имя : H:\ФИЛЬМЫ\Страсти по Чапаю HDTVRip\Страсти по Чапаю 01 серия_HDTVRip_by_Серый1779.mkvФормат : MatroskaВерсия формата : Version 2Размер файла : 1,37 ГбайтПродолжительность : 51 м.Общий поток : 3774 Кбит/секДата кодирования : UTC 2013-02-15 03:40:39Программа кодирования : mkvmerge v4.9.1 ('Ich will') built on Sep 21 2011 17:48:11Библиотека кодирования : libebml v1.2.1 + libmatroska v1.2.0
ВидеоИдентификатор : 1Формат : AVCФормат/Информация : Advanced Video CodecПрофиль формата : [email protected]Параметр CABAC формата : ДаПараметр ReFrames формата : 9 кадровИдентификатор кодека : V_MPEG4/ISO/AVCПродолжительность : 51 м.Битрейт : 3507 Кбит/секШирина : 1280 пикселейВысота : 720 пикселейСоотношение сторон : 16:9Режим частоты кадров : ПостоянныйЧастота кадров : 25,000 кадров/секЦветовое пространство : YUVСубдискретизация насыщенности : 4:2:0Битовая глубина : 8 битТип развёртки : ПрогрессивнаяБит/(Пиксели*Кадры) : 0.152Размер потока : 1,27 Гбайт (93%)Библиотека кодирования : x264 core 118 r2085 8a62835Настройки программы : cabac=1 / ref=9 / deblock=1:-2:-2 / analyse=0x3:0x133 / me=umh / subme=9 / psy=1 / psy_rd=1.00:0.15 / mixed_ref=1 / me_range=32 / chroma_me=1 / trellis=2 / 8x8dct=1 / cqm=0 / deadzone=21,11 / fast_pskip=0 / chroma_qp_offset=-3 / threads=6 / sliced_threads=0 / nr=0 / decimate=1 / interlaced=0 / bluray_compat=0 / constrained_intra=0 / bframes=9 / b_pyramid=2 / b_adapt=2 / b_bias=0 / direct=1 / weightb=1 / open_gop=0 / weightp=2 / keyint=250 / keyint_min=25 / scenecut=40 / intra_refresh=0 / rc_lookahead=50 / rc=crf / mbtree=1 / crf=20.0 / qcomp=0.60 / qpmin=0 / qpmax=69 / qpstep=4 / ip_ratio=1.40 / aq=2:0.80Default : ДаForced : НетОсновные цвета : BT.601 PALХарактеристики трансфера : BT.470 System B, BT.470 System GКоэффициенты матрицы : BT.709
АудиоИдентификатор : 2Формат : MPEG AudioВерсия формата : Version 1Профиль формата : Layer 2Идентификатор кодека : A_MPEG/L2Идентификатор кодека/Подсказка : MP2Продолжительность : 51 м.Вид битрейта : ПостоянныйБитрейт : 192 Кбит/секКаналы : 2 каналаЧастота : 48,0 КГцМетод сжатия : С потерямиРазмер потока : 71,2 Мбайт (5%)Default : ДаForced : Нет

h264 log

x264 [info]: frame I:582 Avg QP:17.57 size:122165x264 [info]: frame P:18555 Avg QP:20.90 size: 38831x264 [info]: frame B:58630 Avg QP:24.21 size: 10240x264 [info]: consecutive B-frames: 1.4% 2.0% 7.7% 52.0% 15.8% 19.1% 1.5% 0.3% 0.1% 0.0%x264 [info]: mb I I16..4: 9.7% 70.9% 19.4%x264 [info]: mb P I16..4: 2.4% 13.4% 2.0% P16..4: 53.0% 17.4% 5.1% 1.1% 0.3% skip: 5.2%x264 [info]: mb B I16..4: 0.2% 1.4% 0.3% B16..8: 38.1% 7.1% 1.9% direct: 5.3% skip:45.8% L0:39.3% L1:46.7% BI:14.0%x264 [info]: 8x8 transform intra:74.5% inter:67.2%x264 [info]: coded y,uvDC,uvAC intra: 80.1% 74.1% 34.1% inter: 21.3% 20.9% 1.3%x264 [info]: i16 v,h,dc,p: 27% 17% 7% 48%x264 [info]: i8 v,h,dc,ddl,ddr,vr,hd,vl,hu: 13% 12% 4% 8% 12% 14% 13% 12% 13%x264 [info]: i4 v,h,dc,ddl,ddr,vr,hd,vl,hu: 12% 12% 3% 7% 13% 14% 14% 11% 14%x264 [info]: i8c dc,h,v,p: 36% 27% 20% 16%x264 [info]: Weighted P-Frames: Y:1.7% UV:0.7%x264 [info]: ref P L0: 47.1% 14.4% 19.0% 5.1% 4.7% 3.1% 3.1% 1.6% 1.8% 0.2% 0.0%x264 [info]: ref B L0: 88.2% 6.1% 2.3% 1.2% 0.8% 0.7% 0.4% 0.2%x264 [info]: ref B L1: 97.0% 3.0%x264 [info]: kb/s:3579.84
x264 [total]: encoded 77767 frames, 2.50 fps, 3579.84 kb/s
Отдельное спасибо mydimka за предоставление исходника.

Внимание ! Раздача ведётся путём добавления новых серий

Внимание! Раздача ведётся путём добавления новых серий; при каждом добавлении создётся новый торрент. Чтобы начать докачку новой серии, пользователям необходимо сделать следующее:
(1) остановить скачивание,
(2) удалить старый торрент у себя из клиента (старые серии удалять не надо),
(3) скачать новый торрент и запустить его у себя в клиенте вместо старого, при этом указать клиенту путь в старую папку куда и должно происходить скачивание новых серий.
Ваш клиент при этом должен произвести хеширование (проверку) старой папки (если не производит сам - помогите ему сделать это), и будет докачивать только те серии которых у вас ещё нет. Старые серии при этом не удаляются, а продолжают раздаваться!
Eсли вы уже удалили старые серии, то предотвратить повторную закачку старых серий можно, отжав галочку в соответсвующих местах при запуске нового торрента. По возможности, желательно не удалять старые серии как можно дольше чтобы релизёр не столько продолжал раздавать старые серии, а смог сконцентрироваться на новых.
ВНИМАНИЕ! ТОРРЕНТ ПЕРЕЗАЛИТ! ДОБАВЛЕНА 1-ая СЕРИИ!

Скриншоты

Other forum [Profile] [PM]

радист

Gender:

Longevity: 11 years

Posts: 164

Торрент-статистика

Post 15-Feb-2013 15:47 (after 1 hour 39 minutes)

[Quote]

А что по одной-то,в нете давно уже все 12 серий болтаются?
ВНИМАНИЕ! ТОРРЕНТ ПЕРЕЗАЛИТ! ДОБАВЛЕНА 1-ая СЕРИИ!-интересно, а до заливки первой серии что было!?

_________________
Дураков на свете не много, но расставлены они так грамотно, что встречаются на каждом шагу.
Other forum [Profile] [PM]

Omen ®

Longevity: 9 years 1 month

Posts: 181086

Торрент-статистика

Post 15-Feb-2013 18:08 (after 2 hours 20 minutes)

[Quote]

Рипуются серии не спеша)))
Other forum [Profile] [PM]
Display posts from previous:    
Reply to topic

The time now is: Today 05:33

All times are GMT + 3 Hours



You cannot post new topics in this forum
You cannot reply to topics in this forum
You cannot edit your posts in this forum
You cannot delete your posts in this forum
You cannot vote in polls in this forum
You cannot attach files in this forum
You cannot download files in this forum