Today is a free download without charge Download

Убежище / Shelter (Манс Марлинд, Бьёрн Стейн / Mans Marlind, Bjorn Stein) [2010] [США] (ужасы, триллер, детектив) [DVD9 R5] [PAL 16:9] «Парадиз Видео»

Reply to topic
 
Author
Message

nsa1977 ®

Gender:

Longevity: 9 years 4 months

Posts: 1470

Location: Пенза

Торрент-статистика

Post 26-May-2011 04:34

[Quote]

Убежище / Shelter
«Прятки начинаются. Он уже ищет тебя.»

Год выхода: 2010
Студия: Macari/Edelstein, NALA Films LLC, NALA Investments, Shelter Productions
Жанр: ужасы, триллер
Режиссер: Манс Марлинд, Бьёрн Стейн
Страна: США
Продолжительность: 01:52:39
Перевод: Профессиональный (дублированный) [Лицензия]
Дата выхода DVD: 26 мая 2011, «Парадиз Видео»
Дата выхода Blu-Ray:16 июня 2011, «Парадиз Видео»--В ролях: Джулианна Мур, Джонатан Рис-Майерс, Джеффри ДеМун, Фрэнсис Конрой, Бруклин Пру,
Натан Кордри, КатиАна Дэвис, Майкл Грейвз, Рик Эпплгейт, Грегори В. Бартли-- --О фильме:
Мать-одиночка и практикующий психиатр Кара Хардинг ведет тему разоблачения идеи о синдроме раздвоения личности. Но однажды она сталкивается с пациентом, чья болезнь не поддается рациональному объяснению: под личиной обычного человека живет демон, который крадет души мертвых…--Качество: DVD9 R5
Формат: DVD-Video
Видео кодек: MPEG2
Аудио кодек: AC3
Видео: PAL 16:9 (720x576(0.622)) MPEG Video,25,000 кадр/сек, 6451 Кбит/сек
Аудио #1: Russian / English (Dolby AC3, 6 ch) 448 Кбит/сек, 48,0 КГц
Аудио #2: English (Dolby AC3, 6 ch) 448 Кбит/сек, 48,0 КГц
Аудио #3: Russian (Dolby AC3, 2 ch) 192 Кбит/сек, 48,0 КГц-
-

DVDInfo


Title: Мой диск
Size: 6.74 Gb ( 7 064 784 KBytes ) - DVD-9
Enabled regions: 1, 2, 3, 4, 5, 6, 7, 8
VTS_01 :
Play Length: 01:47:39
Video: PAL 16:9 (720x576) VBR, Auto Pan&Scan
Audio:
Russian (Dolby AC3, 6 ch)
Russian (Dolby AC3, 2 ch)
English (Dolby AC3, 6 ch)
Subtitles:
Russian
VTS_02 :
Play Length: 00:00:11
Video: PAL 16:9 (720x576) VBR, Auto Pan&Scan
Audio:
Russian (Dolby AC3, 2 ch)
VTS_03 :
Play Length: 00:00:17
Video: PAL 4:3 (720x576) VBR
Audio:
Russian (Dolby AC3, 2 ch)
VTS_04 :
Play Length: 00:07:24
Video: PAL 4:3 (720x576) VBR
Audio:
Russian (Dolby AC3, 2 ch)
VTS_05 :
Play Length: 00:08:11
Video: PAL 16:9 (720x576) VBR, Auto Pan&Scan
Audio:
Russian (Dolby AC3, 2 ch)
Menu Video:
PAL 4:3 (720x576) VBR
Auto Pan&Scan, Auto Letterboxed
Menu Russian Language Unit :
Root Menu
Angle menu

MediaInfo


Общее
Полное имя : F:\Новинки 2011\Ubezhishe.2010.DVD9\VIDEO_TS\VTS_01_1.VOB
Формат : MPEG-PS
Размер файла : 1024 Мбайт
Продолжительность : 18 м.
Общий поток : 7692 Кбит/сек
Видео
Идентификатор : 224 (0xE0)
Формат : MPEG Video
Версия формата : Version 2
Профиль формата : [email protected]
Параметр BVOP формата : Да
Параметр матрицы формата : По умолчанию
Продолжительность : 18 м.
Вид битрейта : Постоянный
Битрейт : 6451 Кбит/сек
Номинальный битрейт : 6000 Кбит/сек
Ширина : 720 пикс.
Высота : 576 пикс.
Соотношение сторон : 16:9
Частота кадров : 25,000 кадр/сек
Стандарт вещания : PAL
Цветовое пространство : YUV
Подвыборка цветности : 4:2:0
Битовая глубина : 8 бит
Тип развёртки : Чересстрочная
Порядок развёртки : Нижнее поле первое
Метод сжатия : С потерями
Бит/(Пиксели*Кадры) : 0.622
Размер потока : 859 Мбайт (84%)
Аудио #1
Идентификатор : 189 (0xBD)-128 (0x80)
Формат : AC-3
Формат/Информация : Audio Coding 3
Расширение режима : CM (complete main)
Режим смешивания : DVD-Video
Продолжительность : 18 м.
Вид битрейта : Постоянный
Битрейт : 448 Кбит/сек
Канал(ы) : 6 канала(ов)
Расположение каналов : Front: L C R, Side: L R, LFE
Частота : 48,0 КГц
Битовая глубина : 16 бит
Метод сжатия : С потерями
Размер потока : 59,6 Мбайт (6%)
Аудио #2
Идентификатор : 189 (0xBD)-129 (0x81)
Формат : AC-3
Формат/Информация : Audio Coding 3
Расширение режима : CM (complete main)
Режим смешивания : DVD-Video
Продолжительность : 18 м.
Вид битрейта : Постоянный
Битрейт : 192 Кбит/сек
Канал(ы) : 2 канала(ов)
Расположение каналов : Front: L R
Частота : 48,0 КГц
Битовая глубина : 16 бит
Метод сжатия : С потерями
Размер потока : 25,6 Мбайт (2%)
Аудио #3
Идентификатор : 189 (0xBD)-130 (0x82)
Формат : AC-3
Формат/Информация : Audio Coding 3
Расширение режима : CM (complete main)
Режим смешивания : DVD-Video
Продолжительность : 18 м.
Вид битрейта : Постоянный
Битрейт : 448 Кбит/сек
Канал(ы) : 6 канала(ов)
Расположение каналов : Front: L C R, Side: L R, LFE
Частота : 48,0 КГц
Битовая глубина : 16 бит
Метод сжатия : С потерями
Размер потока : 59,6 Мбайт (6%)

Скриншоты меню

   

Скриншоты фильма

        
-

_________________


Last edited by nsa1977 on 2011-05-26 04:39; edited 2 times in total
Other forum [Profile] [PM]

Dracula

Longevity: 6 years 1 month

Posts: 10646

Торрент-статистика

Post 06-Jul-2011 15:38 (after 1 month 11 days)

Топик был перенесен из форума Фильмы 2006-2010 в форум Зарубежное кино (DVD)

Delia
 
Display posts from previous:    
Reply to topic

The time now is: Today 21:34

All times are GMT + 3 Hours



You cannot post new topics in this forum
You cannot reply to topics in this forum
You cannot edit your posts in this forum
You cannot delete your posts in this forum
You cannot vote in polls in this forum
You cannot attach files in this forum
You cannot download files in this forum