Сегодня идет свободное скачивание без начисления Download

Добряки (1979) [H.264] DVDRip

Ответить на тему
 
Автор
Сообщение

UndegraundMen ®

Стаж: 5 лет 7 месяцев

Сообщений: 25860

Торрент-статистика

Пост 15-Фев-2013 03:05

[Цитировать]

-Добряки- Год выпуска: 1979
Страны: СССР
Жанры: комедия, ...
Продолжительность: 01:17:39
Режиссер: Карен Шахназаров
Сценарий: Леонид Зорин
Оператор: Владимир Шевцик
Композитор : Марк Минков, Джузеппе Верди
Художник: Николай Поляков, Константин Степанов, А. Забарская
Монтаж: Лидия Милиоти
В ролях: Георгий Бурков (Гордей Кабачков), Татьяна Васильева (Ираида), Николай Волков (Гребешков), Владимир Зельдин (Витальев), Виктор Шарлахов (Анютин), Лариса Пашкова (Сычова), Юрий Леонидов (Колесницын), Александр Сафронов (Ложкин)

Описание: Гордей Кабачков, профессиональный аферист, решил сделать карьеру в науке и весьма преуспел. Обосновавшись в неком Институте античной культуры, он легко обводит вокруг пальца многочисленных «добряков» — членов ученого совета — и защищает диссертацию. После этого занять директорское кресло было для него просто «делом техники»…
Премьера (мир): 11 августа 1980
Рейтинг MPAA: Нет возрастных ограничений-
Релиз группы: by almikl ®-Качество: DVDRip-AVC
Формат: MKV
Видео кодек: H.264 (AVC)
Видео: 688x480 (1.433:1), 23.976 fps, AVC, 2 016 Kbps
Аудио #1: AC3, 384 Kbps, 48.0 KHz, 6 ch

MediaInfo

Код:
General
Complete name                    : Dobryaki.1979.DVDRip-AVC.h264.almikl.mkv
Format                           : Matroska
File size                        : 1.30 GiB
Duration                         : 1h 17mn
Overall bit rate                 : 2 402 Kbps
Encoded date                     : UTC 2010-02-22 21:41:31
Writing application              : mkvmerge v5.9.0 ('On The Loose') built on Dec  9 2012 15:37:01
Writing library                  : libebml v1.3.0 + libmatroska v1.4.0
Video
ID                               : 1
Format                           : AVC
Format/Info                      : Advanced Video Codec
Format profile                   : [url=mailto:[email protected]][email protected][/url]
Format settings, CABAC           : Yes
Format settings, ReFrames        : 6 frames
Muxing mode                      : Container [email protected]
Codec ID                         : V_MPEG4/ISO/AVC
Duration                         : 1h 17mn
Bit rate                         : 2 016 Kbps
Width                            : 688 pixels
Height                           : 480 pixels
Display aspect ratio             : 1.433
Frame rate                       : 23.976 fps
Color space                      : YUV
Chroma subsampling               : 4:2:0
Bit depth                        : 8 bits
Scan type                        : Progressive
Bits/(Pixel*Frame)               : 0.255
Stream size                      : 1.07 GiB (82%)
Writing library                  : x264 core 129 r2230 1cffe9f
Encoding settings                : cabac=1 / ref=6 / deblock=1:-1:-1 / analyse=0x3:0x113 / me=umh / subme=10 / psy=1 / psy_rd=1.00:0.15 / mixed_ref=1 / me_range=32 / chroma_me=1 / trellis=2 / 8x8dct=1 / cqm=0 / deadzone=21,11 / fast_pskip=1 / chroma_qp_offset=-3 / threads=3 / lookahead_threads=1 / sliced_threads=0 / nr=0 / decimate=1 / interlaced=0 / bluray_compat=0 / constrained_intra=0 / bframes=10 / b_pyramid=2 / b_adapt=2 / b_bias=0 / direct=1 / weightb=1 / open_gop=0 / weightp=2 / keyint=240 / keyint_min=23 / scenecut=40 / intra_refresh=0 / rc_lookahead=40 / rc=2pass / mbtree=1 / bitrate=2016 / ratetol=1.0 / qcomp=0.60 / qpmin=10 / qpmax=51 / qpstep=4 / cplxblur=20.0 / qblur=0.5 / ip_ratio=1.40 / aq=1:1.00
Audio
ID                               : 2
Format                           : AC-3
Format/Info                      : Audio Coding 3
Mode extension                   : CM (complete main)
Codec ID                         : A_AC3
Duration                         : 1h 17mn
Bit rate mode                    : Constant
Bit rate                         : 384 Kbps
Channel(s)                       : 6 channels
Channel positions                : Front: L C R, Side: L R, LFE
Sampling rate                    : 48.0 KHz
Bit depth                        : 16 bits
Stream size                      : 213 MiB (16%)
Скриншоты:                    
Вне форума [Профиль] [ЛС]
Показать сообщения:    
Ответить на тему

Текущее время: Сегодня 02:07

Часовой пояс: GMT + 3



Вы не можете начинать темы
Вы не можете отвечать на сообщения
Вы не можете редактировать свои сообщения
Вы не можете удалять свои сообщения
Вы не можете голосовать в опросах
Вы не можете прикреплять файлы к сообщениям
Вы не можете скачивать файлы