Today is a free download without charge Download

Вавилон XX (1979) [H.264] DVDRip

Reply to topic
 
Author
Message

UndegraundMen ®

Longevity: 6 years 2 months

Posts: 25150

Торрент-статистика

Post 15-Feb-2013 03:05

[Quote]

-Вавилон XX (1979) [H.264] DVDRip- Русское название: Вавилон XX
Год выпуска: 1979
Жанр: драма
Описание фильма:
Язык:русский профессионально дублированый, украинский оригинальный
Поэтическая притча по мотивам романа В. Земляка «Лебединая стая».
Тихое украинское селение Вавилон обошли стороной веяния новой эпохи. Не коснулась его и революция. Жизнь шла своим чередом до тех пор, пока в родные края не вернулся матрос с "Авроры" Клим Синица, чтобы основать коммуну. Сельчане к идеям коммун отнеслись равнодушно. Даже местный философ Фабиан не проявил к ним интереса. Но богачам оказались не по нраву революционные порядки. Не желая расставаться с нажитым богатством, они решили расправиться с дерзкими гонцами нового времени…
Режиссер: Иван Миколайчук
Актеры: Любовь Полищук, Иван Миколайчук, Александр Сердюк, Ярослав Гаврилюк, Таисия Литвиненко, Борислав Брондуков, Людмила Чиншевая, Анатолий Хостикоев, Иван Гаврилюк, Константин Степанков, Виталий Расстальной, Ольга Матешко, Раиса Недашковская
Продолжительность: 01:34:30

Видеокодек: MPEG-4 AVC/H.264
Битрейт видео: ~1989 Кбит/сек
Размер кадра: 696x572
Качество видео: DVDRip
Аудиокодек: AC3 2.0
Битрейт аудио: 192 Кбит/сек
Аудио 1: Русский, AC3, 2 ch, 192 Кбит/сек
Аудио 2: Украинский, AC3, 2 ch, 192 Кбит/сек

MediaInfo:

Общее
Уникальный идентификатор : 225993125115335212918567509534287757154 (0xAA04B154090C0128A78C238DE9F67F62)
Полное имя : G:\!V\2013\Вавилон XX (1979) [H.264] DVDRip\Вавилон XX (1979) [H.264] DVDRip.mkv
Формат : Matroska
Версия формата : Version 4 / Version 2
Размер файла : 1,57 Гбайт
Продолжительность : 1 ч. 34 м.
Общий поток : 2375 Кбит/сек
Дата кодирования : UTC 2013-02-14 19:16:31
Программа кодирования : mkvmerge v6.0.0 ('Coming Up For Air') built on Jan 20 2013 09:52:00
Библиотека кодирования : libebml v1.3.0 + libmatroska v1.4.0
Видео
Идентификатор : 1
Формат : AVC
Формат/Информация : Advanced Video Codec
Профиль формата : [url=mailto:[email protected]][email protected][/url]
Параметр CABAC формата : Да
Параметр ReFrames формата : 6 кадров
Идентификатор кодека : V_MPEG4/ISO/AVC
Продолжительность : 1 ч. 34 м.
Битрейт : 1989 Кбит/сек
Ширина : 696 пикселей
Высота : 572 пикселя
Соотношение сторон : 4:3
Режим частоты кадров : Постоянный
Частота кадров : 25,000 кадров/сек
Цветовое пространство : YUV
Субдискретизация насыщенности : 4:2:0
Битовая глубина : 8 бит
Тип развёртки : Прогрессивная
Бит/(Пиксели*Кадры) : 0.200
Размер потока : 1,28 Гбайт (82%)
Библиотека кодирования : x264 core 129 r2230 1cffe9f
Настройки программы : cabac=1 / ref=6 / deblock=1:-1:-1 / analyse=0x3:0x113 / me=umh / subme=10 / psy=1 / psy_rd=1.00:0.15 / mixed_ref=1 / me_range=32 / chroma_me=1 / trellis=2 / 8x8dct=1 / cqm=0 / deadzone=21,11 / fast_pskip=1 / chroma_qp_offset=-3 / threads=6 / lookahead_threads=1 / sliced_threads=0 / nr=0 / decimate=1 / interlaced=0 / bluray_compat=0 / constrained_intra=0 / bframes=10 / b_pyramid=2 / b_adapt=2 / b_bias=0 / direct=1 / weightb=1 / open_gop=0 / weightp=2 / keyint=250 / keyint_min=25 / scenecut=40 / intra_refresh=0 / rc_lookahead=40 / rc=2pass / mbtree=1 / bitrate=1989 / ratetol=1.0 / qcomp=0.60 / qpmin=10 / qpmax=51 / qpstep=4 / cplxblur=20.0 / qblur=0.5 / ip_ratio=1.40 / aq=1:1.00
Язык : Russian
Default : Да
Forced : Нет
Аудио #1
Идентификатор : 2
Формат : AC-3
Формат/Информация : Audio Coding 3
Расширение режима : CM (complete main)
Параметр Endianness формата : Big
Идентификатор кодека : A_AC3
Продолжительность : 1 ч. 34 м.
Вид битрейта : Постоянный
Битрейт : 192 Кбит/сек
Каналы : 2 канала
Расположение каналов : Front: L R
Частота : 48,0 КГц
Битовая глубина : 16 бит
Метод сжатия : С потерями
Размер потока : 130 Мбайт (8%)
Язык : Russian
Default : Да
Forced : Да
Аудио #2
Идентификатор : 3
Формат : AC-3
Формат/Информация : Audio Coding 3
Расширение режима : CM (complete main)
Параметр Endianness формата : Big
Идентификатор кодека : A_AC3
Продолжительность : 1 ч. 34 м.
Вид битрейта : Постоянный
Битрейт : 192 Кбит/сек
Каналы : 2 канала
Расположение каналов : Front: L R
Частота : 48,0 КГц
Битовая глубина : 16 бит
Метод сжатия : С потерями
Размер потока : 130 Мбайт (8%)
Язык : Ukrainian
Default : Нет
Forced : Нет
Скриншоты:
         
         
Other forum [Profile] [PM]
Display posts from previous:    
Reply to topic

The time now is: Today 15:44

All times are GMT + 3 Hours



You cannot post new topics in this forum
You cannot reply to topics in this forum
You cannot edit your posts in this forum
You cannot delete your posts in this forum
You cannot vote in polls in this forum
You cannot attach files in this forum
You cannot download files in this forum