Today is a free download without charge Download

Чем заняться мертвецу в Денвере / Things to Do in Denver When You're Dead (Гэри Фледер / Gary Fleder) [1995 г., Криминальная драма , BDRip 1080p] MVO + DVO + AVO (Ю. Живов / А. Гаврилов) + Original (Eng) + Sub (Rus, Eng)

Reply to topic
 
Author
Message

Omen ®

Longevity: 8 years 5 months

Posts: 181087

Торрент-статистика

Post 15-Feb-2013 01:44

[Quote]

Чем заняться мертвецу в Денвере / Things to Do in Denver When You're Dead
Страна: США
Год выпуска: 1995
Продолжительность: 1:55:34
Жанр: Криминальная драма
Перевод 1: Профессиональный (многоголосый закадровый)
Перевод 2: Профессиональный (многоголосый закадровый)
Перевод 3: Профессиональный (двухголосый закадровый) Премьер
Перевод 4: Авторский (одноголосый закадровый) А. Гаврилов
Перевод 5: Авторский (одноголосый закадровый) Ю. Живов
Оригинальная дорожка: Английская
Субтитры: Отдельно (Русские и Английские)
Режиссер: Гэри Фледер / Gary Fleder
В ролях: Энди Гарсиа, Кристофер Ллойд, Уильям Форсайт, Билл Нанн, Трит Уильямс, Джек Уорден, Стив Бушеми, Файруза Балк, Габриель Анвар, Кристофер Уокен и другие
Описание: Это история о Джимми-Святом, совершившем «кадровую» ошибку при подборе людей для пустякового дела. Могущественный и крайне неприятный босс преступного мира, парализованный от шеи и ниже, попросил занявшегося легальным бизнесом старого друга припугнуть парня девчонки, в которую одержимо влюблен его придурковатый сын, а отобранные Джимми для дела болваны вместо этого убили обоих. Разъяренный Уокен приказывает убить всех, кроме Джимми, дав другу 48 часов, чтобы исчезнуть. Но Джимми не может бросить друзей, да и у самого только что завязался роман с очаровательной юной красавицей …
Доп. информация: Это наш третий, совместный релиз. К сожалению, это "лучшее" на данный момент, что мы могли отрыть, благодаря нашим зарубежным друзьям (не буду называть имен). Как и в прошлый раз, "Softernet" мне активно помогает, с технической точки зрения. Пока не появится Remux (например, с Японского релиза), данный материал останется в почете, как альтернатива еще не вышедшему Remux-у.
Качество: BDRip 1080p
Контейнер: MKV
Формат: H.264 (AVC)
Видео: 1920x1040, 16:9, 23,976 fps ~ 8334 Mb/s
Аудио 1: [English] DTS 5.1, 48 Hz ~ 1509 kbps
Аудио 2: [Russian] AC3 5.1, 48 kHz ~ 448 kbps - (Многоголосый)
Аудио 3: [Russian] AC3 5.1, 48 kHz ~ 384 kbps - (Многоголосый)
Аудио 4: [Russian] DTS 5.1, 48 kHz ~ 755 kbps - (Премьер)
Аудио 5: [Russian] AC3 5.1, 48 kHz ~ 384 kbps - (A. Гаврилов)
Аудио 6: [Russian] AC3 2.0, 48 kHz ~ 192 kbps - (Ю. Живов)

MediaInfo

Общее
Уникальный идентификатор : 232021195985043394268726230524306736048 (0xAE8DA82B1FA247BEBE287B6FBC4943B0)
Полное имя : ...\Things to Do in Denver When You're Dead.mkv
Формат : Matroska
Версия формата : Version 4 / Version 2
Размер файла : 9,69 Гбайт
Продолжительность : 1 ч. 55 м.
Режим общего битрейта : Переменный
Общий поток : 12,0 Мбит/сек
Дата кодирования : UTC 2010-02-22 21:41:31
Программа кодирования : mkvmerge v5.9.0 ('On The Loose') built on Dec 9 2012 15:37:01
Библиотека кодирования : libebml v1.3.0 + libmatroska v1.4.0
Видео
Идентификатор : 1
Формат : AVC
Формат/Информация : Advanced Video Codec
Профиль формата : [email protected]
Параметр CABAC формата : Да
Параметр ReFrames формата : 4 кадра
Идентификатор кодека : V_MPEG4/ISO/AVC
Продолжительность : 1 ч. 55 м.
Вид битрейта : Переменный
Битрейт : 8334 Кбит/сек
Максимальный битрейт : 40,0 Мбит/сек
Ширина : 1920 пикселей
Высота : 1040 пикселей
Соотношение сторон : 1,85:1
Режим частоты кадров : Постоянный
Частота кадров : 23,976 кадра/сек
Цветовое пространство : YUV
Субдискретизация насыщенности : 4:2:0
Битовая глубина : 8 бит
Тип развёртки : Прогрессивная
Бит/(Пиксели*Кадры) : 0.174
Размер потока : 6,53 Гбайт (67%)
Библиотека кодирования : x264 core 119 r2106 07efeb4
Настройки программы : cabac=1 / ref=4 / deblock=1:0:0 / analyse=0x3:0x113 / me=umh / subme=8 / psy=1 / psy_rd=1.00:0.00 / mixed_ref=1 / me_range=16 / chroma_me=1 / trellis=1 / 8x8dct=1 / cqm=0 / deadzone=21,11 / fast_pskip=1 / chroma_qp_offset=-2 / threads=12 / sliced_threads=0 / nr=0 / decimate=1 / interlaced=0 / bluray_compat=0 / constrained_intra=0 / bframes=3 / b_pyramid=2 / b_adapt=2 / b_bias=0 / direct=3 / weightb=1 / open_gop=0 / weightp=2 / keyint=240 / keyint_min=24 / scenecut=40 / intra_refresh=0 / rc_lookahead=50 / rc=2pass / mbtree=1 / bitrate=8334 / ratetol=1.0 / qcomp=0.60 / qpmin=0 / qpmax=69 / qpstep=4 / cplxblur=20.0 / qblur=0.5 / ip_ratio=1.40 / aq=1:1.0
Default : Да
Forced : Нет
Аудио #1
Идентификатор : 2
Формат : DTS
Формат/Информация : Digital Theater Systems
Режим : 16
Параметр Endianness формата : Big
Идентификатор кодека : A_DTS
Продолжительность : 1 ч. 55 м.
Вид битрейта : Постоянный
Битрейт : 1509 Кбит/сек
Каналы : 6 каналов
Расположение каналов : Front: L C R, Side: L R, LFE
Частота : 48,0 КГц
Битовая глубина : 24 бит
Метод сжатия : С потерями
Размер потока : 1,22 Гбайт (13%)
Язык : English
Default : Нет
Forced : Нет
Аудио #2
Идентификатор : 3
Формат : AC-3
Формат/Информация : Audio Coding 3
Расширение режима : CM (complete main)
Параметр Endianness формата : Big
Идентификатор кодека : A_AC3
Продолжительность : 1 ч. 55 м.
Вид битрейта : Постоянный
Битрейт : 448 Кбит/сек
Каналы : 6 каналов
Расположение каналов : Front: L C R, Side: L R, LFE
Частота : 48,0 КГц
Битовая глубина : 16 бит
Метод сжатия : С потерями
Размер потока : 370 Мбайт (4%)
Язык : Russian
Default : Да
Forced : Нет
Аудио #3
Идентификатор : 4
Формат : AC-3
Формат/Информация : Audio Coding 3
Расширение режима : CM (complete main)
Параметр Endianness формата : Big
Идентификатор кодека : A_AC3
Продолжительность : 1 ч. 55 м.
Вид битрейта : Постоянный
Битрейт : 384 Кбит/сек
Каналы : 6 каналов
Расположение каналов : Front: L C R, Side: L R, LFE
Частота : 48,0 КГц
Битовая глубина : 16 бит
Метод сжатия : С потерями
Размер потока : 317 Мбайт (3%)
Язык : Russian
Default : Нет
Forced : Нет
Аудио #4
Идентификатор : 5
Формат : DTS
Формат/Информация : Digital Theater Systems
Режим : 16
Параметр Endianness формата : Big
Идентификатор кодека : A_DTS
Продолжительность : 1 ч. 55 м.
Вид битрейта : Постоянный
Битрейт : 755 Кбит/сек
Каналы : 6 каналов
Расположение каналов : Front: L C R, Side: L R, LFE
Частота : 48,0 КГц
Битовая глубина : 24 бит
Метод сжатия : С потерями
Размер потока : 624 Мбайт (6%)
Язык : Russian
Default : Нет
Forced : Нет
Аудио #5
Идентификатор : 6
Формат : AC-3
Формат/Информация : Audio Coding 3
Расширение режима : CM (complete main)
Параметр Endianness формата : Big
Идентификатор кодека : A_AC3
Продолжительность : 1 ч. 55 м.
Вид битрейта : Постоянный
Битрейт : 384 Кбит/сек
Каналы : 6 каналов
Расположение каналов : Front: L C R, Side: L R, LFE
Частота : 48,0 КГц
Битовая глубина : 16 бит
Метод сжатия : С потерями
Размер потока : 317 Мбайт (3%)
Язык : Russian
Default : Нет
Forced : Нет
Аудио #6
Идентификатор : 7
Формат : AC-3
Формат/Информация : Audio Coding 3
Расширение режима : CM (complete main)
Параметр Endianness формата : Big
Идентификатор кодека : A_AC3
Продолжительность : 1 ч. 55 м.
Вид битрейта : Постоянный
Битрейт : 192 Кбит/сек
Каналы : 2 канала
Расположение каналов : Front: L R
Частота : 48,0 КГц
Битовая глубина : 16 бит
Метод сжатия : С потерями
Размер потока : 159 Мбайт (2%)
Язык : Russian
Default : Нет
Forced : Нет

Скриншоты

Other forum [Profile] [PM]
Display posts from previous:    
Reply to topic

The time now is: Today 02:10

All times are GMT + 3 Hours



You cannot post new topics in this forum
You cannot reply to topics in this forum
You cannot edit your posts in this forum
You cannot delete your posts in this forum
You cannot vote in polls in this forum
You cannot attach files in this forum
You cannot download files in this forum