Today is a free download without charge Download

Страсти по Чапаю / Серии: 1-2 из 12 (Сергей Щербин) [2012, драма, история, HDTVRip - AVC]

Reply to topic
 
Author
Message

Omen ®

Longevity: 9 years 1 month

Posts: 181086

Торрент-статистика

Post 14-Feb-2013 21:36

[Quote]

Страсти по Чапаю- Год выпуска: 2012
Производство: «Централ Партнёршип» и «ООО «Фаворит – Фильм»
Жанр: драма, история
Продолжительность: ~ 00:52:00
Субтитры: нет-Режиссёр: Сергей Щербин-В ролях: Сергей Стрельников, Юлия Галкина, Евгения Лютая, Максим Дрозд, Федор Леонов, Софья Хилькова, Дмитрий Щербина, Александр Соколовский, Карина Андоленко, Кирилл Полухин-Описание: Сериал о малоизвестных деталях биографии легендарного комдива Василия Чапаева — первая любовь в 18 лет и побег из родного села, женитьба и семейная жизнь, Первая мировая война, страстные романы с другими женщинами (дочерью белогвардейского офицера и женой красного комиссара), смертельная вражда, сломанные судьбы и неотвратимая гибель на реке Урал.-Доп. Информация: Спасибо mydimka за предоставленный исходник!-Сэмпл-Качество: DVDRip
Формат: MKV
Видео кодек: H.264
Аудио кодек: AC3
Видео: x264, 1024 х 572 (16:9), 25,000 кадр/сек, ~ 1630 Кбит/сек, ~ 0.111 bit/pixel
Аудио: AC3, 48.0 KHz, 2 канала(ов), 256 kbs

MI

Complete name : Страсти по Чапаю.01 серия.2012.HDTVRip-AVC.Metla111.mkv
Format : Matroska
Format version : Version 2
File size : 700 MiB
Duration : 51mn 50s
Overall bit rate : 1 887 Kbps
Encoded date : UTC 2013-02-14 10:19:11
Writing application : mkvmerge v5.8.0 ('No Sleep / Pillow') built on Sep 2 2012 15:37:04
Writing library : libebml v1.2.3 + libmatroska v1.3.0
Video
ID : 1
Format : AVC
Format/Info : Advanced Video Codec
Format profile : [email protected]
Format settings, CABAC : Yes
Format settings, ReFrames : 10 frames
Codec ID : V_MPEG4/ISO/AVC
Duration : 51mn 50s
Bit rate : 1 630 Kbps
Width : 1 024 pixels
Height : 572 pixels
Display aspect ratio : 16:9
Frame rate mode : Constant
Frame rate : 25.000 fps
Color space : YUV
Chroma subsampling : 4:2:0
Bit depth : 8 bits
Scan type : Progressive
Bits/(Pixel*Frame) : 0.111
Stream size : 591 MiB (84%)
Writing library : x264 core 125 r2208 d9d2288
Encoding settings : cabac=1 / ref=10 / deblock=1:-3:-3 / analyse=0x3:0x113 / me=umh / subme=9 / psy=1 / psy_rd=1.00:0.20 / mixed_ref=1 / me_range=32 / chroma_me=1 / trellis=2 / 8x8dct=1 / cqm=0 / deadzone=21,11 / fast_pskip=1 / chroma_qp_offset=-3 / threads=12 / lookahead_threads=2 / sliced_threads=0 / nr=0 / decimate=0 / interlaced=0 / bluray_compat=0 / constrained_intra=0 / bframes=8 / b_pyramid=2 / b_adapt=2 / b_bias=0 / direct=3 / weightb=1 / open_gop=0 / weightp=2 / keyint=250 / keyint_min=25 / scenecut=40 / intra_refresh=0 / rc=2pass / mbtree=0 / bitrate=1630 / ratetol=1.0 / qcomp=0.70 / qpmin=0 / qpmax=69 / qpstep=4 / cplxblur=20.0 / qblur=0.5 / ip_ratio=1.40 / pb_ratio=1.30 / aq=1:1.00
Default : Yes
Forced : No
Color primaries : BT.709
Transfer characteristics : BT.709
Matrix coefficients : BT.709
Audio
ID : 2
Format : AC-3
Format/Info : Audio Coding 3
Mode extension : CM (complete main)
Format settings, Endianness : Big
Codec ID : A_AC3
Duration : 51mn 50s
Bit rate mode : Constant
Bit rate : 256 Kbps
Channel(s) : 2 channels
Channel positions : Front: L R
Sampling rate : 48.0 KHz
Bit depth : 16 bits
Compression mode : Lossy
Stream size : 94.9 MiB (14%)
Default : Yes
Forced : No

Log - x264

raw [info]: 1024x572p 1:1 @ 25/1 fps (cfr)
x264 [info]: using SAR=1/1
x264 [info]: using cpu capabilities: MMX2 SSE2Fast SSSE3 FastShuffle SSE4.2 AVX XOP FMA4 FMA3 SSEMisalign LZCNT BMI1 TBM
x264 [info]: profile High, level 4.0
x264 [info]: frame I:593 Avg QP:21.61 size: 57030
x264 [info]: frame P:19671 Avg QP:24.34 size: 16677
x264 [info]: frame B:57504 Avg QP:26.67 size: 4726
x264 [info]: consecutive B-frames: 1.9% 3.9% 9.8% 53.4% 14.1% 14.7% 1.6% 0.4% 0.2%
x264 [info]: mb I I16..4: 7.4% 73.5% 19.1%
x264 [info]: mb P I16..4: 1.9% 10.7% 1.5% P16..4: 44.8% 17.0% 9.8% 0.0% 0.0% skip:14.2%
x264 [info]: mb B I16..4: 0.2% 0.9% 0.1% B16..8: 40.5% 6.5% 1.7% direct: 3.5% skip:46.7% L0:39.3% L1:50.9% BI: 9.8%
x264 [info]: 8x8 transform intra:74.8% inter:68.1%
x264 [info]: direct mvs spatial:94.8% temporal:5.2%
x264 [info]: coded y,uvDC,uvAC intra: 77.2% 64.8% 24.7% inter: 15.9% 13.5% 2.7%
x264 [info]: i16 v,h,dc,p: 28% 18% 8% 47%
x264 [info]: i8 v,h,dc,ddl,ddr,vr,hd,vl,hu: 11% 10% 4% 8% 13% 14% 14% 12% 13%
x264 [info]: i4 v,h,dc,ddl,ddr,vr,hd,vl,hu: 12% 9% 3% 8% 14% 14% 14% 11% 14%
x264 [info]: i8c dc,h,v,p: 38% 27% 20% 16%
x264 [info]: Weighted P-Frames: Y:5.4% UV:2.3%
x264 [info]: ref P L0: 50.0% 15.4% 15.2% 4.7% 4.1% 2.9% 2.8% 1.5% 1.5% 1.5% 0.2% 0.0%
x264 [info]: ref B L0: 84.7% 7.5% 3.1% 1.5% 1.1% 0.9% 0.7% 0.4% 0.2%
x264 [info]: ref B L1: 95.9% 4.1%
x264 [info]: kb/s:1629.51

Скриншоты

Внимание ! Раздача ведётся путём добавления новых серий

Внимание! Раздача ведётся путём добавления новых серий; при каждом добавлении создаётся новый торрент. Чтобы начать докачку новой серии, пользователям необходимо сделать следующее:
(1) остановить скачивание,
(2) удалить старый торрент у себя из клиента (старые серии удалять не надо),
(3) скачать новый торрент и запустить его у себя в клиенте вместо старого, при этом указать клиенту путь в старую папку куда и должно происходить скачивание новых серий.
Ваш клиент при этом должен произвести хеширование (проверку) старой папки (если не производит сам - помогите ему сделать это), и будет докачивать только те серии которых у вас ещё нет. Старые серии при этом не удаляются, а продолжают раздаваться!
Если вы уже удалили старые серии, то предотвратить повторную закачку старых серий можно, отжав галочку в соответствующих местах при запуске нового торрента. По возможности, желательно не удалять старые серии как можно дольше чтобы релизёр не столько продолжал раздавать старые серии, а смог сконцентрироваться на новых.
Other forum [Profile] [PM]
Display posts from previous:    
Reply to topic

The time now is: Today 05:45

All times are GMT + 3 Hours



You cannot post new topics in this forum
You cannot reply to topics in this forum
You cannot edit your posts in this forum
You cannot delete your posts in this forum
You cannot vote in polls in this forum
You cannot attach files in this forum
You cannot download files in this forum