Today is a free download without charge Download

Колледж / College (Джеймс В. Хорн / James W. Horne) [1927, США, драма, комедия, спорт, BDRip 1080p] Sub Rus + Original Eng

Reply to topic
 
Author
Message

Omen ®

Longevity: 8 years 5 months

Posts: 181087

Торрент-статистика

Post 14-Feb-2013 21:36

[Quote]

Колледж / College Страна: США
Жанр: драма, комедия, спорт
Год выпуска: 1927
Продолжительность: 01:04:50
Перевод: субтитры
Cубтитры: русские

Режиссер: Джеймс В. Хорн / James W. Horne
В ролях: Бастер Китон, Энн Корнуолл, Флора Брэмли, Харольд Гудвин, Шнитц Эдвардс, Карл Харбо, Сэм Кроуфорд, Флоренс Тернер, Роберт Болинг, Лейтон Дай, Пол Голдсмит, Чарли Холл, Бад Хаузер, Эрик Макк, Джеймс Т. Макк, Бадди Мэйсон, Мадам Сул-Те-Ван, Грант Виттерс, Шорти Уорден

Описание:Еще одна прекрасная комедия Бастера Китона. На этот раз герой Китона — «книжный червь», который после школьного выпуска решает серьезно заняться спортом в колледже, чтобы понравиться девушке... Основное содержание фильма как раз и посвящено этим проявлениям мужественного упрямства молодого человека, пытающегося укротить легкоатлетические снаряды, бейсбольную площадку и лодку-восьмерку...

Качество видео: BDRip (1080p)
Формат видео: MKV
Видео: MPEG-4 AVC, 1456x1080, 23.976 fps, 9006 kbps
Аудио: AC3, 48 kHz, 2 ch, 640 kbps
Формат субтитров: softsub (SRT)

MediaInfo

Код:
Общее
Уникальный идентификатор : 174460123280050361552147362446872766607 (0x833FCC2C6924C823B56FD4312C55688F)
Полное имя : E:VideoCollege.1927.Sub.BDRip1080p.mkv
Формат : Matroska
Версия формата : Version 4 / Version 2
Размер файла : 4,37 Гбайт
Продолжительность : 1 ч. 4 м.
Общий поток : 9647 Кбит/сек
Дата кодирования : UTC 2013-02-14 14:24:31
Программа кодирования : mkvmerge v6.0.0 ('Coming Up For Air') built on Jan 20 2013 09:52:00
Библиотека кодирования : libebml v1.3.0 + libmatroska v1.4.0
Видео
Идентификатор : 1
Формат : AVC
Формат/Информация : Advanced Video Codec
Профиль формата : [email protected]
Параметр CABAC формата : Да
Параметр ReFrames формата : 4 кадра
Идентификатор кодека : V_MPEG4/ISO/AVC
Продолжительность : 1 ч. 4 м.
Битрейт : 9006 Кбит/сек
Ширина : 1456 пикселей
Высота : 1080 пикселей
Соотношение сторон : 4:3
Режим частоты кадров : Постоянный
Частота кадров : 23,976 кадра/сек
Цветовое пространство : YUV
Субдискретизация насыщенности : 4:2:0
Битовая глубина : 8 бит
Тип развёртки : Прогрессивная
Бит/(Пиксели*Кадры) : 0.239
Размер потока : 3,99 Гбайт (91%)
Библиотека кодирования : x264 core 129 r2245 bc13772
Настройки программы : cabac=1 / ref=4 / deblock=1:0:0 / analyse=0x3:0x133 / me=umh / subme=7 / psy=1 / psy_rd=1.00:0.00 / mixed_ref=1 / me_range=16 / chroma_me=1 / trellis=1 / 8x8dct=1 / cqm=0 / deadzone=21,11 / fast_pskip=0 / chroma_qp_offset=-2 / threads=12 / lookahead_threads=2 / sliced_threads=0 / nr=0 / decimate=1 / interlaced=0 / bluray_compat=0 / constrained_intra=0 / bframes=3 / b_pyramid=2 / b_adapt=1 / b_bias=0 / direct=1 / weightb=1 / open_gop=0 / weightp=2 / keyint=250 / keyint_min=23 / scenecut=40 / intra_refresh=0 / rc_lookahead=40 / rc=2pass / mbtree=1 / bitrate=9006 / ratetol=1.0 / qcomp=0.60 / qpmin=0 / qpmax=69 / qpstep=4 / cplxblur=20.0 / qblur=0.5 / ip_ratio=1.40 / aq=1:1.00
Язык : English
Default : Да
Forced : Нет
Аудио
Идентификатор : 2
Формат : AC-3
Формат/Информация : Audio Coding 3
Расширение режима : CM (complete main)
Параметр Endianness формата : Big
Идентификатор кодека : A_AC3
Продолжительность : 1 ч. 4 м.
Вид битрейта : Постоянный
Битрейт : 640 Кбит/сек
Каналы : 2 канала
Расположение каналов : Front: L R
Частота : 48,0 КГц
Битовая глубина : 16 бит
Метод сжатия : С потерями
Размер потока : 297 Мбайт (7%)
Язык : English
Default : Да
Forced : Нет
Текст
Идентификатор : 3
Формат : UTF-8
Идентификатор кодека : S_TEXT/UTF8
Идентификатор кодека/Информация : UTF-8 Plain Text
Язык : Russian
Default : Да
Forced : Нет

Скриншоты


Other forum [Profile] [PM]
Similar theme
Forum Topic Author Torrent Replies Last Post
./templates/default/images/folder_dl.gif Эротические игры Женский коллектив: Трудовой экстаз [L] [RUS / RUS] (2003) Omen
1 | 0

0 | 3120

45

2012-12-30 12:00
Omen Latest
./templates/default/images/folder_dl.gif Приключения и квесты Small Town Terrors 3 Galdors Bluff Sammleredition / Террор в городке 3 Блеф Галдора Коллекционное издание [P] [RUS] (2015) Omen
1 | 0

0 | 2349

24

2015-06-13 15:00
Omen Latest
Display posts from previous:    
Reply to topic

The time now is: Today 02:30

All times are GMT + 3 Hours



You cannot post new topics in this forum
You cannot reply to topics in this forum
You cannot edit your posts in this forum
You cannot delete your posts in this forum
You cannot vote in polls in this forum
You cannot attach files in this forum
You cannot download files in this forum