Today is a free download without charge Download

Ray Davies - Imaginary Man (The Kinks) [2010, Rock, HDTV 720p]

Reply to topic
 
Author
Message

Omen ®

Longevity: 8 years 4 months

Posts: 181087

Торрент-статистика

Post 14-Feb-2013 21:36

[Quote]

Ray Davies - Imaginary Man
Жанр: Rock
Продолжительность: 01:16:24
Год выпуска: 2010
Режиссер: Julien Temple
Описание:
Документальный фильм о Рэе Дэвисе, лидере The Kinks,
был снят осенью 2010 года в поддержку его нового альбома See My Friends.
Он был впервые показан на телеканале BBC One в телепрограмме Imagine 21.12.2010г.
Доп. информация:
Источник: ThePirateBay
Есть русские субтитры, сделанные мной на основе оригинальных.
В оригинале и в переводе субтитры отсутствуют в течение 3 минут,
начиная с позиции 01:00:28.
Тексты и названия песен умышленно не переводились.
Качество: HDTV 720p
Контейнер: MKV
Видео кодек: H.264
Аудио кодек: AC3
Видео: MPEG4 Video (H264), 1280x720, 25fps, 4000 Kbps
Аудио: Dolby AC3 48000Hz stereo, 192 Kbps
Субтитры: Английские, Русские

Отчёт MediaInfo / BDInfo

GeneralUnique ID : 192213805514996134739633307574572559524 (0x909B0849D5230827908947CE69622CA4)Complete name : E:\Upload\Ray Davies - Imaginary Man\Ray Davies - Imaginary Man.mkvFormat : MatroskaFormat version : Version 4 / Version 2File size : 2.24 GiBDuration : 1h 16mnOverall bit rate : 4 193 KbpsEncoded date : UTC 2013-02-14 14:10:02Writing application : mkvmerge v6.0.0 ('Coming Up For Air') built on Jan 20 2013 09:52:00Writing library : libebml v1.3.0 + libmatroska v1.4.0
VideoID : 1Format : AVCFormat/Info : Advanced Video CodecFormat profile : [email protected] settings, CABAC : YesFormat settings, ReFrames : 4 framesCodec ID : V_MPEG4/ISO/AVCDuration : 1h 16mnBit rate : 4 000 KbpsWidth : 1 280 pixelsHeight : 720 pixelsDisplay aspect ratio : 16:9Frame rate mode : ConstantFrame rate : 25.000 fpsColor space : YUVChroma subsampling : 4:2:0Bit depth : 8 bitsScan type : ProgressiveBits/(Pixel*Frame) : 0.174Stream size : 2.09 GiB (93%)Writing library : x264 core 112 r1834 a51816aEncoding settings : cabac=1 / ref=4 / deblock=1:0:0 / analyse=0x3:0x113 / me=umh / subme=9 / psy=1 / psy_rd=1.00:0.00 / mixed_ref=1 / me_range=24 / chroma_me=1 / trellis=1 / 8x8dct=1 / cqm=0 / deadzone=21,11 / fast_pskip=0 / chroma_qp_offset=-2 / threads=3 / sliced_threads=0 / nr=0 / decimate=1 / interlaced=0 / constrained_intra=0 / bframes=3 / b_pyramid=0 / b_adapt=1 / b_bias=0 / direct=1 / weightb=1 / open_gop=0 / weightp=2 / keyint=125 / keyint_min=25 / scenecut=40 / intra_refresh=0 / rc_lookahead=40 / rc=2pass / mbtree=1 / bitrate=4000 / ratetol=1.0 / qcomp=0.60 / qpmin=0 / qpmax=51 / qpstep=4 / cplxblur=20.0 / qblur=0.5 / ip_ratio=1.40 / aq=1:1.00Language : EnglishDefault : YesForced : No
AudioID : 2Format : AC-3Format/Info : Audio Coding 3Mode extension : CM (complete main)Format settings, Endianness : BigCodec ID : A_AC3Duration : 1h 16mnBit rate mode : ConstantBit rate : 192 KbpsChannel(s) : 2 channelsChannel positions : Front: L RSampling rate : 48.0 KHzBit depth : 16 bitsCompression mode : LossyDelay relative to video : 29msStream size : 105 MiB (5%)Language : EnglishDefault : YesForced : No
Text #1ID : 3Format : UTF-8Codec ID : S_TEXT/UTF8Codec ID/Info : UTF-8 Plain TextLanguage : RussianDefault : YesForced : No
Text #2ID : 4Format : UTF-8Codec ID : S_TEXT/UTF8Codec ID/Info : UTF-8 Plain TextLanguage : EnglishDefault : NoForced : No
Other forum [Profile] [PM]
Display posts from previous:    
Reply to topic

The time now is: Today 02:24

All times are GMT + 3 Hours



You cannot post new topics in this forum
You cannot reply to topics in this forum
You cannot edit your posts in this forum
You cannot delete your posts in this forum
You cannot vote in polls in this forum
You cannot attach files in this forum
You cannot download files in this forum