Today is a free download without charge Download

Korn - Live in Bremen [2011, Nu Metal, HDTVRip 720p]

Reply to topic
 
Author
Message

Omen ®

Longevity: 8 years 4 months

Posts: 181087

Торрент-статистика

Post 14-Feb-2013 21:36

[Quote]

Korn - Live in Bremen (14.06.2011)
Жанр: Nu Metal
Продолжительность: 1:17:36
Год выпуска: 2011
Сет-лист:
1. Blind
2. Here to Stay
3. Pop a Pill
4. Freak on a Leash
5. Shoots and Ladders / One
6. For You
7. Got the Life
8. Alone I Break
9. Oildale (Leave Me Alone)
10. Right Now
11. Throw Me Away
12. Ball Tongue / Lodi Dodi / It Takes Two
13. Dirty
14. Somebody Someone
15. Get Up!
16. Falling Away From Me
17. Coming Undone / We Will Rock You / Twisted Transistor / Make Me Bad / Thoughtless / Did My Time / Clown
18. You All Want a Single
Доп. информация: Взято с alterportal.ru
Качество: HDTVRip 720p
Контейнер: MP4
Видео кодек: H.264
Аудио кодек: AAC
Видео: AVC, 1280x720, 2841 Kbps, 25 fps
Аудио: AAC, 152-227 Kbps, 44.1 KHz, 2 channels

Отчёт MediaInfo / BDInfo

GeneralFormat : MPEG-4Format profile : Base Media / Version 2Codec ID : mp42File size : 1.62 GiBDuration : 1h 17mnOverall bit rate mode : VariableOverall bit rate : 2 996 KbpsEncoded date : UTC 2012-07-11 22:47:10Tagged date : UTC 2012-07-11 22:47:10gsst : 0gstd : 4657086gssd : BADC20A41HH1353919113490609gshh : o-o---preferred---sn-2gb7ln7s---v11---lscache3.c.youtube.com
VideoID : 1Format : AVCFormat/Info : Advanced Video CodecFormat profile : [email protected] settings, CABAC : YesFormat settings, ReFrames : 1 frameCodec ID : avc1Codec ID/Info : Advanced Video CodingDuration : 1h 17mnBit rate : 2 841 KbpsMaximum bit rate : 5 556 KbpsWidth : 1 280 pixelsHeight : 720 pixelsDisplay aspect ratio : 16:9Frame rate mode : ConstantFrame rate : 25.000 fpsColor space : YUVChroma subsampling : 4:2:0Bit depth : 8 bitsScan type : ProgressiveBits/(Pixel*Frame) : 0.123Stream size : 1.54 GiB (95%)Tagged date : UTC 2012-07-11 22:48:59
AudioID : 2Format : AACFormat/Info : Advanced Audio CodecFormat profile : LCCodec ID : 40Duration : 1h 17mnBit rate mode : VariableBit rate : 152 KbpsMaximum bit rate : 227 KbpsChannel(s) : 2 channelsChannel positions : Front: L RSampling rate : 44.1 KHzCompression mode : LossyStream size : 84.4 MiB (5%)Title : IsoMedia File Produced by Google, 5-11-2011Encoded date : UTC 2012-07-11 22:48:30Tagged date : UTC 2012-07-11 22:48:59

Скриншоты


Other forum [Profile] [PM]
Display posts from previous:    
Reply to topic

The time now is: Today 12:21

All times are GMT + 3 Hours



You cannot post new topics in this forum
You cannot reply to topics in this forum
You cannot edit your posts in this forum
You cannot delete your posts in this forum
You cannot vote in polls in this forum
You cannot attach files in this forum
You cannot download files in this forum