Today is a free download without charge Download

Билет на Vegas (Гор Киракосян) [2012, комедия, приключения, BDRip 720p] [лицензия]

Reply to topic
 
Author
Message

Meshanik ®

Gender:

Longevity: 8 years 10 months

Posts: 3866

Location: Los Angeles

Торрент-статистика

Post 14-Feb-2013 15:40

[Quote]

Билет на Vegas«Кто же сорвет джек-пот?» -Оригинальное название: Билет на Vegas
Год выпуска: 2012
Страна: Россия, США
Жанр: комедия, приключения
Продолжительность: 01:30:25
Перевод: Дублированный [лицензия]
Субтитры: Отсутствуют-Дата мировой премьеры: 24 января 2013
Дата российской премьеры: 24 января 2013, «Парадиз»
Дата выхода DVD релиза: 19 февраля 2013, «Парадиз Медиа»
Дата выхода Blu-Ray релиза: 19 февраля 2013, «Парадиз Медиа»-Режиссёр: Гор Киракосян
Сценарий: Ирина Пивоварова, Сергей Калужанов, Гор Киракосян
Продюсер: Армен Григорян, Михаил Галустян, Армен Ананикян, ...
В ролях: Михаил Галустян, Ингрид Олеринская, Иван Стебунов, Владимир Яглыч, Наталья Ноздрина, Дэнни Трехо, Олег Тактаров, Виталий Хаев, Ким Уитли, Гильермо Диас-
Описание: На молодую парочку, Макса и Лизу, сваливается удача: они становятся победителями лотереи с выигрышем в пять миллионов долларов! Но получить деньги можно только на торжественной церемонии в столице порока, азартных игр и безудержного веселья, Лас Вегасе…- -Качество: BDRip 720p
Формат: MKV
Видео кодек: x264
Аудио кодек: AC3
Видео: 1280x534 , 24.000 fps, ~4738 kbps avg, 0.289 bit/pixel
Аудио: 48 kHz, AC3 Dolby Digital, 3/2 (L,C,R,l,r) + LFE ch, ~640.00 kbps
-

MediaInfo

Общее
Уникальный идентификатор : 248882525903362298761270427838862365131 (0xBB3D07EAD85800F6A59FED46C94891CB)
Полное имя : Bilet.na.Vegas.2012.BDRip.720p.mkv
Формат : Matroska
Версия формата : Version 2
Размер файла : 3,13 Гбайт
Продолжительность : 1 ч. 29 м.
Общий поток : 5006 Кбит/сек
Дата кодирования : UTC 2013-02-14 05:46:40
Программа кодирования : mkvmerge v5.2.0 ('I can't explain') built on Dec 18 2011 18:12:03
Библиотека кодирования : libebml v1.2.3 + libmatroska v1.3.0
Видео
Идентификатор : 1
Формат : AVC
Формат/Информация : Advanced Video Codec
Профиль формата : [email protected]
Параметр CABAC формата : Да
Параметр ReFrames формата : 12 кадров
Идентификатор кодека : V_MPEG4/ISO/AVC
Продолжительность : 1 ч. 29 м.
Битрейт : 4267 Кбит/сек
Ширина : 1280 пикселей
Высота : 534 пикселя
Соотношение сторон : 2,40:1
Частота кадров : 24,000 кадра/сек
Цветовое пространство : YUV
Субдискретизация насыщенности : 4:2:0
Битовая глубина : 8 бит
Тип развёртки : Прогрессивная
Бит/(Пиксели*Кадры) : 0.260
Размер потока : 2,67 Гбайт (85%)
Заголовок : Bilet na Vegas 2012 720p BluRay AC3 x264-IRONCLUB
Библиотека кодирования : x264 core 129 r2245kMod bc13772
Настройки программы : cabac=1 / ref=12 / deblock=1:-3:-3 / analyse=0x3:0x113 / me=umh / subme=11 / psy=1 / fade_compensate=0.00 / psy_rd=0.95:0.00 / mixed_ref=1 / me_range=24 / chroma_me=1 / trellis=2 / 8x8dct=1 / cqm=0 / deadzone=21,11 / fast_pskip=0 / chroma_qp_offset=-2 / threads=12 / lookahead_threads=2 / sliced_threads=0 / nr=0 / decimate=1 / interlaced=0 / bluray_compat=0 / constrained_intra=0 / bframes=9 / b_pyramid=2 / b_adapt=2 / b_bias=0 / direct=3 / weightb=1 / open_gop=0 / weightp=2 / keyint=250 / keyint_min=24 / scenecut=40 / intra_refresh=0 / rc_lookahead=60 / rc=crf / mbtree=0 / crf=18.0000 / qcomp=0.70 / qpmin=0 / qpmax=69 / qpstep=4 / vbv_maxrate=50000 / vbv_bufsize=62500 / crf_max=0.0 / nal_hrd=none / ip_ratio=1.30 / pb_ratio=1.20 / aq=1:0.85
Язык : English
Default : Да
Forced : Да
Аудио
Идентификатор : 2
Формат : AC-3
Формат/Информация : Audio Coding 3
Расширение режима : CM (complete main)
Идентификатор кодека : A_AC3
Продолжительность : 1 ч. 29 м.
Вид битрейта : Постоянный
Битрейт : 640 Кбит/сек
Каналы : 6 каналов
Расположение каналов : Front: L C R, Side: L R, LFE
Частота : 48,0 КГц
Битовая глубина : 16 бит
Метод сжатия : С потерями
Размер потока : 410 Мбайт (13%)
Заголовок : DD 5.1 @ 640 kbps
Язык : Russian
Default : Да
Forced : Да
Меню
00:00:00.000 : en:00:00:00.000
00:08:05.500 : en:00:08:05.500
00:14:44.000 : en:00:14:44.000
00:26:09.875 : en:00:26:09.875
00:30:14.666 : en:00:30:14.666
00:39:56.041 : en:00:39:56.041
00:47:11.208 : en:00:47:11.208
00:55:43.708 : en:00:55:43.708
01:03:19.458 : en:01:03:19.458
01:09:52.208 : en:01:09:52.208
01:13:47.708 : en:01:13:47.708
01:17:54.375 : en:01:17:54.375
-

Скриншоты

         
-
Other forum [Profile] [PM]

Black Swan

Longevity: 8 years

Posts: 16

Торрент-статистика

Post 08-Apr-2013 11:32 (after 1 month 21 day)

[Quote]

Спасибо!!! Посмотрим очередной шедевр отечественного кинематографа. Присмотрись внимательно...
Other forum [Profile] [PM]
Display posts from previous:    
Reply to topic

The time now is: Today 09:34

All times are GMT + 3 Hours



You cannot post new topics in this forum
You cannot reply to topics in this forum
You cannot edit your posts in this forum
You cannot delete your posts in this forum
You cannot vote in polls in this forum
You cannot attach files in this forum
You cannot download files in this forum