Today is a free download without charge Download

Седьмые врата ада / E Tu Vivrai Nel Terrore! - L'Aldila' /The Beyond, Seven Doors of Death (Лучио Фульчи) [1981 г., ужасы, BDRip720p]

Reply to topic
 
Author
Message

Delia ®

Gender:

Longevity: 9 years 6 months

Posts: 1821

Торрент-статистика

Post 25-May-2011 11:09

[Quote]

Седьмые врата адаE Tu Vivrai Nel Terrore! - L'Aldila' / The Beyond Год выпуска: 1981
Страна: Италия
Жанр: ужасы
Продолжительность: 01:27:27
Перевод: Профессиональный (многоголосый, закадровый)
Режиссер: Лучио Фульчи
Продюссер: Фабрицио Де Анджелис
Сценарий: Дардано Саккетти, Giorgio Mariuzzo, Лучио Фульчи
Бюджет: $400 000
Премьера в мире: 22 апреля 1981
В ролях: Катриона МакКолл, Дэвид Уорбек, Чинция Монреале, Антуан Сент-Джон, Вероника Лазар, Энтони Флис, Джованни Де Нава, Эл Клайвер, Мишель Мирабелла, Джанпаоло Саккарола
Описание: 1927 год, штат Луизиана. Одинокий отель на окраине Нового Орлеана. У входа собираются люди, вооруженные цепями и прочим холодным и огнестрельным оружием. Они врываются в комнату номер 36, которую снимает художник Швейк.Его обвиняют в связях с сатаной, жестоко избивают цепями, а потом приколачивают гвоздями к стене в подвале, обливают кислотой и замуровывают...
Качество: BDRip720p
Формат: MKV
Видео кодек: H.264
Аудио кодек: AC3
Видео: English, 5812 Кбит/сек, 1280*544 (2,35:1), в 23,976 кадр/сек, AVC ([email protected])
Аудио: Russian, 384 Кбит/сек, 48,0 КГц, 16 бит, 6 канала(ов), AC-3|многоголосый, закадровый
Аудио:Russian, 640 Кбит/сек, 48,0 КГц, 16 бит, 6 канала(ов), AC-3|одноголосый (Антон Костюкевич)
Аудио:English, 320 Кбит/сек, 48,0 КГц, 16 бит, 6 канала(ов), AC-3|оригинал
Субтитры:Russian, English - VobSub

Знаете ли вы, что...

*На съемки фильма было потрачено пять недель.
*Запрещен во многих странах мира, а в некоторых урезан практически до 65 минут.
*По словам Фульчи актёр Дэвид Варбек, который исполнил одну из главных ролей в фильме, годился только для съёмок в дешёвых фильмах ужасов, но внешне он был похож на Джека Николсона, что могло помочь при дистрибуции фильма.
*Появление зомби в фильме первоначально не планировалось, но по просьбе германских прокатчиков (фильмы Джорджа Ромеро и самого Фульчи, где появлялись зомби, были довольно популярны в Германии) они были задействованы. Но денег в бюджете на добавление в сюжет зомби не было, тогда Фульчи собрал местных бомжей, нарядил их в одежду покойников, также был наложен специальный грим, и уговорил сниматься в фильме за выпивку, давая им спиртное между дублями.
*Фульчи исполнил в фильме небольшую роль хранителя городского архива.
*В США фильм вышел под названием «The Beyond».

MI:

Общее
Уникальный идентификатор : 243169623003958554427875838047689331258 (0xB6F0C40ECD6F3F26A6BADABF5157523A)
Полное имя : E:\торрент\The Beyond(1981)BDRip720p.mkv
Формат : Matroska
Размер файла : 4,37 Гбайт
Продолжительность : 1 ч. 27 м.
Общий поток : 7162 Кбит/сек
Дата кодирования : UTC 2011-05-25 06:54:38
Программа кодирования : mkvmerge v4.7.0 ('Just Like You Imagined') built on Apr 21 2011 01:13:14
Библиотека кодирования : libebml v1.2.0 + libmatroska v1.1.0
Видео
Идентификатор : 1
Формат : AVC
Формат/Информация : Advanced Video Codec
Профиль формата : [email protected]
Параметр CABAC формата : Да
Параметр ReFrames формата : 8 кадры
Идентификатор кодека : V_MPEG4/ISO/AVC
Продолжительность : 1 ч. 27 м.
Битрейт : 5812 Кбит/сек
Ширина : 1280 пикс.
Высота : 544 пикс.
Соотношение сторон : 2,35:1
Частота кадров : 23,976 кадр/сек
Цветовое пространство : YUV
Подвыборка цветности : 4:2:0
Битовая глубина : 8 бит
Тип развёртки : Прогрессивная
Бит/(Пиксели*Кадры) : 0.348
Размер потока : 3,47 Гбайт (79%)
Библиотека кодирования : x264 core 115 r1995 c1e60b9
Настройки программы : cabac=1 / ref=8 / deblock=1:-3:-3 / analyse=0x3:0x133 / me=umh / subme=7 / psy=1 / psy_rd=1.00:0.15 / mixed_ref=1 / me_range=32 / chroma_me=1 / trellis=2 / 8x8dct=1 / cqm=0 / deadzone=21,11 / fast_pskip=0 / chroma_qp_offset=-3 / threads=6 / sliced_threads=0 / nr=0 / decimate=1 / interlaced=0 / bluray_compat=0 / constrained_intra=0 / bframes=4 / b_pyramid=2 / b_adapt=1 / b_bias=0 / direct=1 / weightb=1 / open_gop=0 / weightp=2 / keyint=250 / keyint_min=24 / scenecut=40 / intra_refresh=0 / rc_lookahead=50 / rc=2pass / mbtree=1 / bitrate=5812 / ratetol=1.0 / qcomp=0.80 / qpmin=0 / qpmax=69 / qpstep=4 / cplxblur=20.0 / qblur=0.5 / ip_ratio=1.40 / aq=1:1.00
Язык : English
Аудио #1
Идентификатор : 2
Формат : AC-3
Формат/Информация : Audio Coding 3
Расширение режима : CM (complete main)
Идентификатор кодека : A_AC3
Продолжительность : 1 ч. 27 м.
Вид битрейта : Постоянный
Битрейт : 384 Кбит/сек
Канал(ы) : 6 канала(ов)
Расположение каналов : Front: L C R, Side: L R, LFE
Частота : 48,0 КГц
Битовая глубина : 16 бит
Метод сжатия : С потерями
Размер потока : 240 Мбайт (5%)
Язык : Russian
Аудио #2
Идентификатор : 3
Формат : AC-3
Формат/Информация : Audio Coding 3
Расширение режима : CM (complete main)
Идентификатор кодека : A_AC3
Продолжительность : 1 ч. 27 м.
Вид битрейта : Постоянный
Битрейт : 640 Кбит/сек
Канал(ы) : 6 канала(ов)
Расположение каналов : Front: L C R, Side: L R, LFE
Частота : 48,0 КГц
Битовая глубина : 16 бит
Метод сжатия : С потерями
Размер потока : 400 Мбайт (9%)
Язык : Russian
Аудио #3
Идентификатор : 4
Формат : AC-3
Формат/Информация : Audio Coding 3
Расширение режима : CM (complete main)
Идентификатор кодека : A_AC3
Продолжительность : 1 ч. 27 м.
Вид битрейта : Постоянный
Битрейт : 320 Кбит/сек
Канал(ы) : 6 канала(ов)
Расположение каналов : Front: L C R, Side: L R, LFE
Частота : 48,0 КГц
Битовая глубина : 16 бит
Метод сжатия : С потерями
Размер потока : 200 Мбайт (4%)
Язык : English
Текст #1
Идентификатор : 5
Формат : VobSub
Режим смешивания : zlib
Идентификатор кодека : S_VOBSUB
Идентификатор кодека/Информация : The same subtitle format used on DVDs
Язык : Russian
Текст #2
Идентификатор : 6
Формат : VobSub
Режим смешивания : zlib
Идентификатор кодека : S_VOBSUB
Идентификатор кодека/Информация : The same subtitle format used on DVDs
Язык : English
Меню
00:00:00.000 : en:00:00:00.000
00:08:27.632 : en:00:08:27.632
00:14:27.700 : en:00:14:27.700
00:20:11.542 : en:00:20:11.542
00:25:39.162 : en:00:25:39.162
00:35:16.780 : en:00:35:16.780
00:39:51.347 : en:00:39:51.347
00:47:39.898 : en:00:47:39.898
00:54:00.320 : en:00:54:00.320
01:00:09.438 : en:01:00:09.438
01:07:40.014 : en:01:07:40.014
01:16:45.350 : en:01:16:45.350

Скриншоты

        

_________________
Человек – это канат, натянутый между животным и сверхчеловеком, – канат над пропастью.
В человеке ценно то, что он мост, а не цель. Фридрих Ницше


Last edited by Delia on 2011-08-26 18:28; edited 1 time in total
Other forum [Profile] [PM]
Display posts from previous:    
Reply to topic

The time now is: Today 08:50

All times are GMT + 3 Hours



You cannot post new topics in this forum
You cannot reply to topics in this forum
You cannot edit your posts in this forum
You cannot delete your posts in this forum
You cannot vote in polls in this forum
You cannot attach files in this forum
You cannot download files in this forum