Today is a free download without charge Download

По горячим следам / Сезон 1 / Серии: 1- из 12 (Илья Максимов) [2011, Детектив, HDTVRip 720p]

Reply to topic
 
Author
Message

Omen ®

Longevity: 9 years 1 month

Posts: 181086

Торрент-статистика

Post 14-Feb-2013 13:24

[Quote]

По горячим следам
Год выпуска: 2011
Производство: Мотор фильм студия
Жанр: Детектив
Продолжительность: ~00:45:00
Режиссёр: Илья Максимов
В ролях: Мария Порошина, Вячеслав Разбегаев, Дарья Сагалова, Василий Брыков, Александр Тютин, Андрей Балякин, Андрей Кравчук (II), Кристина Савина, Владимир Епифанцев, Дмитрий Титов, Татьяна Лучинина, Наталья Тищенко, Мария Дмитриева, Василий Куприянов, Ольга Мокшина, Дмитрий Скачков, Егор Тимцуник, Олег Захарутин, Евгений Гурьянов, Виталий Евдокимов, Борис Зверев, Сергей Кисса, Анатолий Морозов, Андрей Муравьёв, Алан Плиев, Татьяна Покроева, Сергей Стегайлов, Татьяна Рощина, Юрий Внуков, Александр Макаров, Сергей Проценко, Варвара Репецкая, Ян Романов, Дарья Щербакова, Лия Кетлерова, Владимир Бобров, Виктор Довженко, Максим Дромашко, Елена Куликова, Владимир Лободин, Ирина Никитина, Владимир Прянчин, Екатерина Добровская, Оксана Спиричева, Михаил Гаспарян, Ольга Кузьмина, Карим Пакачаков, Давид Степанян, Виктор Удочкин, Аким Ефремов, Егор Клейменов, Юрий Печенежский, Светлана Чернышева, Наталья Яськова, Александр Числов, Рустам Абдрашитов, Татьяна Павлуцкая, Вячеслав Туник, Александр Шаляпин, Вячеслав Троицкий, Валентин Юнин, Игорь Литовкин (II), Дана Назарова, Елизавета Курбанмагомедова, Елизавета Кюблер, Юрий Котов (II), Евгений Харитонов (III), Кристина Пучкова и другие.
Описание: Главные герои сериала, майор милиции Любовь Суворова (Мария Порошина) и капитан Андрей Шульгин (Вячеслав Разбегаев) - сотрудники специального отдела МВД, занимающегося поиском пропавших людей. Суворовой и Шульгину помогает стажёр Ольга (Дарья Сагалова), прилежная и добросовестная девушка, на которую всегда можно положиться. Вместе они берутся за дела, на которые иные следователи махнули бы рукой, и доводят начатое до конца, чего бы это ни стоило. Герои знают: действовать нужно быстро, ведь отыскать пропавшего человека можно только по горячим следам!
Грач (Посредник)[/url]

Качество: HDTVRip 720p
Формат: MKV
Видео кодек: H.264
Аудио кодек: MPEG Audio
Видео: x264, 1280 х 720 (16:9), 25,000 кадр/сек, ~ 2029 Кбит/сек
Аудио: MPEG Audio 48000Hz stereo 192 Кбит/сек
Сторонней рекламы нет!

MediaInfo

ОбщееУникальный идентификатор : 235519878646877621889304431546006684358 (0xB12F7A8AABB2F95A86D8BFDD9F8AC2C6)Полное имя : E:\Downloads\55\По горячим следам. Первый сезон AVC\По горячим следам 01_серия_SATRip_by_Серый1779.mkvФормат : MatroskaРазмер файла : 696 МбайтПродолжительность : 43 м.Общий поток : 2224 Кбит/секДата кодирования : UTC 2013-02-14 01:35:59Программа кодирования : mkvmerge v4.9.1 ('Ich will') built on Sep 21 2011 17:48:11Библиотека кодирования : libebml v1.2.1 + libmatroska v1.2.0
ВидеоИдентификатор : 1Формат : AVCФормат/Информация : Advanced Video CodecПрофиль формата : [email protected]Параметр CABAC формата : ДаПараметр ReFrames формата : 10 кадровИдентификатор кодека : V_MPEG4/ISO/AVCПродолжительность : 43 м.Битрейт : 1987 Кбит/секШирина : 1280 пикс.Высота : 720 пикс.Соотношение сторон : 16:9Частота кадров : 25,000 кадр/секЦветовое пространство : YUVПодвыборка цветности : 4:2:0Битовая глубина : 8 битТип развёртки : ПрогрессивнаяБит/(Пиксели*Кадры) : 0.086Размер потока : 622 Мбайт (89%)Библиотека кодирования : x264 core 118 r2085 8a62835Настройки программы : cabac=1 / ref=10 / deblock=1:-2:-2 / analyse=0x3:0x133 / me=umh / subme=9 / psy=1 / psy_rd=1.00:0.15 / mixed_ref=1 / me_range=32 / chroma_me=1 / trellis=2 / 8x8dct=1 / cqm=0 / deadzone=21,11 / fast_pskip=0 / chroma_qp_offset=-3 / threads=6 / sliced_threads=0 / nr=0 / decimate=1 / interlaced=0 / bluray_compat=0 / constrained_intra=0 / bframes=9 / b_pyramid=2 / b_adapt=2 / b_bias=0 / direct=1 / weightb=1 / open_gop=0 / weightp=2 / keyint=250 / keyint_min=25 / scenecut=40 / intra_refresh=0 / rc_lookahead=50 / rc=crf / mbtree=1 / crf=20.0 / qcomp=0.60 / qpmin=0 / qpmax=69 / qpstep=4 / ip_ratio=1.40 / aq=2:0.80Основные цвета : BT.470-6 System B, BT.470-6 System G, BT.601-6 625, BT.1358 625, BT.1700 625 PAL, BT.1700 625 SECAMХарактеристики трансфера : BT.470-6 System B, BT.470-6 System GКоэффициенты матрицы : BT.470-6 System B, BT.470-6 System G, BT.601-6 625, BT.1358 625, BT.1700 625 PAL, BT.1700 625 SECAM, IEC 61966-2-4 601
АудиоИдентификатор : 2Формат : MPEG AudioВерсия формата : Version 1Профиль формата : Layer 2Идентификатор кодека : A_MPEG/L2Идентификатор кодека/Подсказка : MP2Продолжительность : 43 м.Вид битрейта : ПостоянныйБитрейт : 192 Кбит/секКаналы : 2 каналаЧастота : 48,0 КГцМетод сжатия : С потерямиРазмер потока : 60,1 Мбайт (9%)

h264 log

x264 [info]: frame I:596 Avg QP:17.47 size: 70644x264 [info]: frame P:14806 Avg QP:20.67 size: 23541x264 [info]: frame B:50220 Avg QP:23.54 size: 5483x264 [info]: consecutive B-frames: 2.3% 1.4% 3.6% 42.0% 11.1% 38.9% 0.3% 0.4% 0.0% 0.0%x264 [info]: mb I I16..4: 10.5% 79.3% 10.2%x264 [info]: mb P I16..4: 3.1% 10.4% 1.0% P16..4: 61.1% 14.3% 2.7% 0.3% 0.1% skip: 6.9%x264 [info]: mb B I16..4: 0.2% 0.7% 0.1% B16..8: 36.7% 4.0% 0.8% direct: 4.8% skip:52.9% L0:42.5% L1:49.8% BI: 7.7%x264 [info]: 8x8 transform intra:73.4% inter:73.2%x264 [info]: coded y,uvDC,uvAC intra: 69.3% 71.1% 32.4% inter: 14.4% 20.5% 0.8%x264 [info]: i16 v,h,dc,p: 33% 18% 7% 42%x264 [info]: i8 v,h,dc,ddl,ddr,vr,hd,vl,hu: 17% 10% 4% 8% 12% 14% 11% 12% 11%x264 [info]: i4 v,h,dc,ddl,ddr,vr,hd,vl,hu: 19% 12% 3% 7% 13% 15% 12% 10% 10%x264 [info]: i8c dc,h,v,p: 34% 25% 24% 17%x264 [info]: Weighted P-Frames: Y:1.2% UV:0.6%x264 [info]: ref P L0: 42.7% 10.9% 22.3% 5.7% 6.0% 3.4% 3.9% 1.6% 2.0% 1.6% 0.1% 0.0%x264 [info]: ref B L0: 85.9% 7.5% 2.8% 1.3% 0.8% 0.7% 0.5% 0.3% 0.2%x264 [info]: ref B L1: 97.1% 2.9%x264 [info]: kb/s:2029.85
x264 [total]: encoded 65622 frames, 3.19 fps, 2029.85 kb/s
Отдельное спасибо mydimka за предоставление исходника.

Внимание ! Раздача ведётся путём добавления новых серий

Внимание! Раздача ведётся путём добавления новых серий; при каждом добавлении создётся новый торрент. Чтобы начать докачку новой серии, пользователям необходимо сделать следующее:
(1) остановить скачивание,
(2) удалить старый торрент у себя из клиента (старые серии удалять не надо),
(3) скачать новый торрент и запустить его у себя в клиенте вместо старого, при этом указать клиенту путь в старую папку куда и должно происходить скачивание новых серий.
Ваш клиент при этом должен произвести хеширование (проверку) старой папки (если не производит сам - помогите ему сделать это), и будет докачивать только те серии которых у вас ещё нет. Старые серии при этом не удаляются, а продолжают раздаваться!
Eсли вы уже удалили старые серии, то предотвратить повторную закачку старых серий можно, отжав галочку в соответсвующих местах при запуске нового торрента. По возможности, желательно не удалять старые серии как можно дольше чтобы релизёр не столько продолжал раздавать старые серии, а смог сконцентрироваться на новых.
ВНИМАНИЕ! ТОРРЕНТ ПЕРЕЗАЛИТ! ДОБАВЛЕНА 1-ая СЕРИИ!

Скриншоты

Other forum [Profile] [PM]
Display posts from previous:    
Reply to topic

The time now is: Today 23:47

All times are GMT + 3 Hours



You cannot post new topics in this forum
You cannot reply to topics in this forum
You cannot edit your posts in this forum
You cannot delete your posts in this forum
You cannot vote in polls in this forum
You cannot attach files in this forum
You cannot download files in this forum