Today is a free download without charge Download

Суррогаты / Surrogates (Джонатан Мостоу) [2009, США, фантастика, боевик, триллер, BDRip 1080p] Dub + Sub Rus + Original Eng

Reply to topic
 
Author
Message

Omen ®

Longevity: 8 years 5 months

Posts: 181087

Торрент-статистика

Post 14-Feb-2013 13:24

[Quote]

Суррогаты / Surrogates
Страна: США
Жанр: фантастика, боевик, триллер
Год выпуска: 2009
Продолжительность: 01:28:36
Перевод: Профессиональный (дублированный)
Cубтитры: русские, русские (надписи и пр.), русские (комментарии)
Оригинальная аудиодорожка: английская
Режиссер: Джонатан Мостоу
В ролях: Брюс Уиллис, Рада Митчел, Розамунд Пайк, Джеймс Джинти, Джеймс Кромуэлл, Винг Рэймс, Джек Ноузворфи, Девин Рэтрей, Джеффри Де Серрано, Хелена Мэттссон, Майкл Филлип, Дэнни Ф Смит, Брайан А. Пэрриш, Дженни Элден
Описание: Действие разворачивается в будущем, в 2057 году, — когда люди практически перестанут общаться между собой и полностью возложат эту функцию на плечи роботов-заменителей. Они сильнее, моложе, привлекательнее своих обладателей и даже могут быть другого пола. Но находится террорист, начинающий уничтожать идеальных андроидов. Полицейскому Тому Гриру предстоит узнать, какие причины движут злоумышленником, лишающим жизни людей и их марионеток, технически и физически совершенных.

Сэмпл: http://yadi.sk/d/mQO4BxfQ2ar-W
Тип релиза: BDRip 1080p
Контейнер: MKV
Видео: 1920x800 [AR 2.40:1] at 23.976 fps, [email protected], ~ 13.480 kbps avg
Аудио: Russian: 48 kHz, AC3, 3/2 (L,C,R,l,r) + LFE ch, ~640.00 kbps avg
Аудио 2: English: 48 kHz, DTS, 3/2 (L,C,R,l,r) + LFE ch, ~1536.00 kbps avg

MediaInfo

D:\Кино HD\Surrogates.2009.BDRip1080p.DTS.Rus.Eng.mkv
General
Unique ID : 185139465128063111425873592358116778004 (0x8B489060D953269B85CC5D16536FE014)
Complete name : D:\Кино HD\Surrogates.2009.BDRip1080p.DTS.Rus.Eng.mkv
Format : Matroska
Format version : Version 4 / Version 2
File size : 9.67 GiB
Duration : 1h 28mn
Overall bit rate : 15.6 Mbps
Movie name : Surrogates (2009) - Release for HDCLUB
Encoded date : UTC 2013-02-14 06:20:37
Writing application : mkvmerge v6.0.0 ('Coming Up For Air') built on Jan 20 2013 09:52:00
Writing library : libebml v1.3.0 + libmatroska v1.4.0
Video #1
ID : 1
Format : AVC
Format/Info : Advanced Video Codec
Format profile : [email protected]
Format settings, CABAC : Yes
Format settings, ReFrames : 5 frames
Codec ID : V_MPEG4/ISO/AVC
Duration : 1h 28mn
Bit rate : 13.6 Mbps
Width : 1 920 pixels
Height : 800 pixels
Display aspect ratio : 2.40:1
Frame rate mode : Constant
Frame rate : 23.976 fps
Color space : YUV
Chroma subsampling : 4:2:0
Bit depth : 8 bits
Scan type : Progressive
Bits/(Pixel*Frame) : 0.370
Stream size : 8.15 GiB (84%)
Writing library : x264 core 80 r1376M 3feaec2
Encoding settings : cabac=1 / ref=5 / deblock=1:-3:-3 / analyse=0x3:0x113 / me=esa / subme=9 / psy=1 / psy_rd=1.4:0.0 / mixed_ref=1 / me_range=24 / chroma_me=1 / trellis=2 / 8x8dct=1 / cqm=0 / deadzone=6,6 / fast_pskip=0 / chroma_qp_offset=-2 / threads=12 / sliced_threads=0 / nr=0 / decimate=0 / mbaff=0 / constrained_intra=0 / bframes=6 / b_pyramid=2 / b_adapt=2 / b_bias=-1 / direct=3 / wpredb=1 / wpredp=2 / keyint=250 / keyint_min=25 / scenecut=40 / rc_lookahead=80 / rc=2pass / mbtree=1 / bitrate=13610 / ratetol=1000000000.0 / qcomp=0.80 / qpmin=10 / qpmax=51 / qpstep=4 / cplxblur=20.0 / qblur=0.5 / ip_ratio=1.10 / aq=1:0.60
Language : English
Default : Yes
Forced : No
Audio #2
ID : 2
Format : AC-3
Format/Info : Audio Coding 3
Mode extension : CM (complete main)
Format settings, Endianness : Big
Codec ID : A_AC3
Duration : 1h 28mn
Bit rate mode : Constant
Bit rate : 640 Kbps
Channel(s) : 6 channels
Channel positions : Front: L C R, Side: L R, LFE
Sampling rate : 48.0 KHz
Bit depth : 16 bits
Compression mode : Lossy
Stream size : 406 MiB (4%)
Language : Russian
Default : Yes
Forced : No
Audio #3
ID : 3
Format : DTS
Format/Info : Digital Theater Systems
Mode : 16
Format settings, Endianness : Big
Codec ID : A_DTS
Duration : 1h 28mn
Bit rate mode : Constant
Bit rate : 1 509 Kbps
Channel(s) : 6 channels
Channel positions : Front: L C R, Side: L R, LFE
Sampling rate : 48.0 KHz
Bit depth : 24 bits
Compression mode : Lossy
Stream size : 956 MiB (10%)
Language : English
Default : No
Forced : No
Text #4
ID : 4
Format : UTF-8
Codec ID : S_TEXT/UTF8
Codec ID/Info : UTF-8 Plain Text
Title : Forced
Language : Russian
Default : No
Forced : No
Text #5
ID : 5
Format : UTF-8
Codec ID : S_TEXT/UTF8
Codec ID/Info : UTF-8 Plain Text
Language : Russian
Default : No
Forced : No
Text #6
ID : 6
Format : UTF-8
Codec ID : S_TEXT/UTF8
Codec ID/Info : UTF-8 Plain Text
Title : Commentary
Language : Russian
Default : No
Forced : No
Text #7
ID : 7
Format : UTF-8
Codec ID : S_TEXT/UTF8
Codec ID/Info : UTF-8 Plain Text
Language : English
Default : No
Forced : No

Скриншоты

Other forum [Profile] [PM]
Display posts from previous:    
Reply to topic

The time now is: Today 02:42

All times are GMT + 3 Hours



You cannot post new topics in this forum
You cannot reply to topics in this forum
You cannot edit your posts in this forum
You cannot delete your posts in this forum
You cannot vote in polls in this forum
You cannot attach files in this forum
You cannot download files in this forum