Today is a free download without charge Download

Discovery: Золотая Лихорадка. Аляска. Ультиматум / Gold Rush. Alaska. The Ultimatum (2012) SATRip [Сезон 3: эпизод 5]

Reply to topic
 
Author
Message

UndegraundMen ®

Longevity: 7 years 7 months

Posts: 25145

Торрент-статистика

Post 14-Feb-2013 12:20

[Quote]

-Discovery: Золотая Лихорадка. Аляска. Ультиматум / Gold Rush. Alaska. The Ultimatum (2012) SATRip [Сезон 3: эпизод 5]- Автор Rip'а: skorpionN
Русское название: Discovery: Золотая Лихорадка. Аляска. Ультиматум
Оригинальное название: Gold Rush. Alaska. The Ultimatum
Режиссер / Телекомпания: Discovery Channel
Год выпуска: 2012
Жанр: Документальный
Описание:
Их шестеро, у них есть ограниченное время и ресурсы, им необходимо добыть золото, иначе их семьям придется очень тяжело, каждый день для них суровое испытание. Каждый день может принести им миллионы а может их отобрать! Повезет ли?!
05. Ультиматум / Ultimatum
Инвестор ставит Хоффману ультиматум. Он должен в течении следующих трех недель добыть 100 унций золота, иначе они разрывают все отношения и прекращают инвестировать проект.
Видеокодек: Xvid
Битрейт видео: ~1700 kbps
Размер кадра: 704х400
Качество видео: SATRip
Аудиокодек: AC3, 2ch.
Битрейт аудио: 192 kbps

MediaInfo:

Формат : AVI
Формат/Информация : Audio Video Interleave
Размер файла : 599 Мбайт
Продолжительность : 44 м.
Общий поток : 1902 Кбит/сек
Программа кодирования : VirtualDubMod 1.5.10.3 | www.virtualdub-fr.org || (build 2550/release)
Библиотека кодирования : VirtualDubMod build 2550/release
Видео
Идентификатор : 0
Формат : MPEG-4 Visual
Профиль формата : Advanced [email protected]
Параметр BVOP формата : 2
Параметр QPel формата : Нет
Параметр GMC формата : Без точки перехода
Параметр матрицы формата : Default (H.263)
Идентификатор кодека : XVID
Идентификатор кодека/Подсказка : XviD
Продолжительность : 44 м.
Битрейт : 1700 Кбит/сек
Ширина : 704 пикс.
Высота : 400 пикс.
Соотношение сторон : 16:9
Частота кадров : 25,000 кадр/сек
Цветовое пространство : YUV
Подвыборка цветности : 4:2:0
Битовая глубина : 8 бит
Тип развёртки : Прогрессивная
Метод сжатия : С потерями
Бит/(Пиксели*Кадры) : 0.241
Размер потока : 535 Мбайт (89%)
Библиотека кодирования : XviD 1.2.1 (UTC 2008-12-04)
Аудио
Идентификатор : 1
Формат : AC-3
Формат/Информация : Audio Coding 3
Расширение режима : CM (complete main)
Идентификатор кодека : 2000
Продолжительность : 44 м.
Вид битрейта : Постоянный
Битрейт : 192 Кбит/сек
Канал(ы) : 2 канала(ов)
Расположение каналов : Front: L R
Частота : 48,0 КГц
Битовая глубина : 16 бит
Метод сжатия : С потерями
Размер потока : 60,5 Мбайт (10%)
Выравнивание : Разделение по промежуткам
Продолжительность промежутка : 40 мс. (1,00 видеокадр)
Время предзагрузки промежутка : 500 ms
Сезон 3:
Скриншоты:
         
         
Other forum [Profile] [PM]
Display posts from previous:    
Reply to topic

The time now is: Today 10:53

All times are GMT + 3 Hours



You cannot post new topics in this forum
You cannot reply to topics in this forum
You cannot edit your posts in this forum
You cannot delete your posts in this forum
You cannot vote in polls in this forum
You cannot attach files in this forum
You cannot download files in this forum