Today is a free download without charge Download

Черный дрозд / Deadfall (Штефан Руцовицки / Stefan Ruzowitzky) [2012, США, триллер, драма, криминал, BDRip 1080p] Dub + Orig Eng + Subs (Rus, Eng)

Reply to topic
 
Author
Message

Omen ®

Longevity: 8 years 5 months

Posts: 181087

Торрент-статистика

Post 14-Feb-2013 00:56

[Quote]

Черный дроздDeadfall«От прошлого не скрыться»- Страна: США
Жанр: триллер, драма, криминал
Год выпуска: 2012
Продолжительность: 01:34:38-Перевод: Профессиональный (полное дублирование) [Лицензия]
Оригинальная аудиодорожка: английский
Субтитры: русские, английские
Режиссер: Штефан Руцовицки / Stefan Ruzowitzky
В ролях: Эрик Бана, Оливия Уайлд, Чарли Ханнэм, Сисси Спейсек, Крис Кристофферсон, Джейсон Кавалье, Кевин Десфоссес, Ален Голем, Эллисон Грэхэм, Патрик Кертон, Кейт Мара, Трит Уильямс-Описание: Эддисон и Лайза в бегах после неудачного ограбления казино. Бывший боксер Джей направляется домой, чтобы провести День Благодарения в кругу семьи. Судьба неумолимо сводит этих людей, чтобы они встретили Зло и вступили в схватку с ним.-


MPAA: R - Лицам до 17 лет обязательно присутствие взрослого-

Доп. Информация

Сценарий: Зэк Дин / Zach Dean
Продюсер: Шелли Клиппард / Shelly Clippard, Бен Косгров / Ben Cosgrove, Марк Кубан / Mark Cuban, Гари Левинсон / Gary Levinsohn, Тодд Вагнер / Todd Wagner
Оператор: Шейн Хёрлбат / Shane Hurlbut
Композитор: Марко Белтрами / Marco Beltrami
Бюджет: $12 000 000
Сборы в США: $66 351
Мировая премьера: 22 апреля 2012
-Качество: BDRip 1080р
Контейнер: MKV
Видео: AVC, 1920x816 (2.35:1), 10472 kbps, 23,976 fps, 0,279 bpp
Аудио №1: русский / AC3 / 5.1 / 48 kHz / 448 kbps / 16 bit ||
Аудио №2: английский / DTS / 5.1 / 48 kHz / 1510 kbps / 24 bit
Субтитры: русские, английские, английские (SDH)
Навигация по главам: есть-

Знаете ли Вы, что...

  • В первый день съемок Оливии Уайльд снимали сцену в Канаде, где ее персонаж замерзает почти до смерти, при этом из одежды на ней была практически одна мини-юбка.

Media Info

General
Unique ID : 200163594667941525647115471383241010148 (0x96961B27B673D0B8B0080501DCA9ABE4)
Complete name : F:\Deadfall.2012.D.BDRip_1080p.mkv
Format : Matroska
Format version : Version 2
File size : 8.20 GiB
Duration : 1h 34mn
Overall bit rate : 12.4 Mbps
Movie name : IRONCLUB
Encoded date : UTC 2013-02-13 14:26:46
Writing application : mkvmerge v4.9.1 ('Ich will') сборка от Jul 11 2011 23:53:15
Writing library : libebml v1.2.1 + libmatroska v1.1.1
Video
ID : 1
Format : AVC
Format/Info : Advanced Video Codec
Format profile : [email protected]
Format settings, CABAC : Yes
Format settings, ReFrames : 5 frames
Codec ID : V_MPEG4/ISO/AVC
Duration : 1h 34mn
Bit rate : 10.5 Mbps
Width : 1 920 pixels
Height : 816 pixels
Display aspect ratio : 2.35:1
Frame rate : 23.976 fps
Color space : YUV
Chroma subsampling : 4:2:0
Bit depth : 8 bits
Scan type : Progressive
Bits/(Pixel*Frame) : 0.279
Stream size : 6.74 GiB (82%)
Title : Deadfall.2012.BluRay.1080p.DTS.x264-CHD
Writing library : x264 core 128 r2216+698 b3c1019
Encoding settings : cabac=1 / ref=5 / deblock=1:-3:-3 / analyse=0x3:0x113 / me=umh / subme=10 / psy=1 / fade_compensate=0.00 / psy_rd=1.10:0.10 / mixed_ref=1 / me_range=48 / chroma_me=1 / trellis=2 / 8x8dct=1 / cqm=0 / deadzone=21,11 / fast_pskip=0 / chroma_qp_offset=-2 / threads=12 / lookahead_threads=2 / sliced_threads=0 / nr=0 / decimate=1 / interlaced=0 / bluray_compat=0 / constrained_intra=0 / fgo=0 / bframes=6 / b_pyramid=2 / b_adapt=2 / b_bias=0 / direct=3 / weightb=1 / open_gop=0 / weightp=2 / keyint=250 / keyint_min=23 / scenecut=40 / intra_refresh=0 / rc_lookahead=40 / rc=2pass / mbtree=0 / bitrate=10472 / ratetol=2.0 / qcomp=0.70 / qpmin=0 / qpmax=69 / qpstep=4 / cplxblur=20.0 / qblur=0.5 / vbv_maxrate=40000 / vbv_bufsize=30000 / nal_hrd=none / ip_ratio=1.40 / pb_ratio=1.30 / aq=2:1.00
Language : English
Default : Yes
Forced : Yes
Audio #1
ID : 2
Format : AC-3
Format/Info : Audio Coding 3
Mode extension : CM (complete main)
Codec ID : A_AC3
Duration : 1h 34mn
Bit rate mode : Constant
Bit rate : 448 Kbps
Channel(s) : 6 channels
Channel positions : Front: L C R, Side: L R, LFE
Sampling rate : 48.0 KHz
Bit depth : 16 bits
Compression mode : Lossy
Stream size : 303 MiB (4%)
Title : DD 5.1 @ 448 kbps - Dub, R5
Language : Russian
Default : Yes
Forced : Yes
Audio #2
ID : 3
Format : DTS
Format/Info : Digital Theater Systems
Codec ID : A_DTS
Duration : 1h 34mn
Bit rate mode : Constant
Bit rate : 1 510 Kbps
Channel(s) : 6 channels
Channel positions : Front: L C R, Side: L R, LFE
Sampling rate : 48.0 KHz
Bit depth : 24 bits
Compression mode : Lossy
Stream size : 1 022 MiB (12%)
Title : DTS 5.1 @ 1536 kbps
Language : English
Default : No
Forced : No
Text #1
ID : 4
Format : UTF-8
Codec ID : S_TEXT/UTF8
Codec ID/Info : UTF-8 Plain Text
Language : Russian
Default : No
Forced : No
Text #2
ID : 5
Format : UTF-8
Codec ID : S_TEXT/UTF8
Codec ID/Info : UTF-8 Plain Text
Language : English
Default : No
Forced : No
Text #3
ID : 6
Format : UTF-8
Codec ID : S_TEXT/UTF8
Codec ID/Info : UTF-8 Plain Text
Title : SDH
Language : English
Default : No
Forced : No

Скриншоты

Other forum [Profile] [PM]
Display posts from previous:    
Reply to topic

The time now is: Today 05:23

All times are GMT + 3 Hours



You cannot post new topics in this forum
You cannot reply to topics in this forum
You cannot edit your posts in this forum
You cannot delete your posts in this forum
You cannot vote in polls in this forum
You cannot attach files in this forum
You cannot download files in this forum