Today is a free download without charge Download

Три мешка хитростей (Ольга Ходатаева) [1954, Рисованный мультфильм, DVDRip]

Reply to topic
 
Author
Message

Omen ®

Longevity: 7 years 11 months

Posts: 181087

Торрент-статистика

Post 14-Feb-2013 00:56

[Quote]

Три мешка хитростей
Страна: СССР
Жанр: Рисованный мультфильм
Продолжительность: 00:10:11
Год выпуска: 1954
Русские субтитры: нет
Режиссёр: Ольга Ходатаева
Описание: Хитрая Лисица, пробираясь в сад за виноградом, попадает в силки. Притворившись мертвой, она спасает себя от расправы, но не отказывается от воровства. Обманув простадушного Ежика, Лиса заставляет его таскать для нее из сада виноград
Доп. информация:
сценарист Зинаида Филимонова
художник-постановщик Надежда Строганова
художники Г. Невзорова, В. Роджеро
художники-мультипликаторы Лидия Резцова, Борис Бутаков, Л. Попов, Владимир Арбеков, Дмитрий Белов, Фаина Епифанова, Мстислав Купрач
оператор Е. Ризо
композитор М. Болдырев
звукооператор Георгий Мартынюк
монтажёр А. Фирсова
Качество: DVDRip
Формат: AVI
Видео: 704x528 (1.33:1), 25 fps, XviD build 65 ~2148 kbps avg, 0.23 bit/pixel
Аудио: 48 kHz, AC3 Dolby Digital, 2/0 (L,R) ch, ~224.00 kbps avg
Субтитры: нет

Подробные технические данные

Format : AVIFormat/Info : Audio Video InterleaveFile size : 174 MiBDuration : 10mn 11sOverall bit rate : 2 382 KbpsWriting application : VirtualDubModRus 1.5.10.2 (build 2542/release)Copyright : Rutracker.orgComment : DVDRip by dvdss
VideoID : 0Format : MPEG-4 VisualFormat profile : Advanced [email protected] settings, BVOP : 2Format settings, QPel : NoFormat settings, GMC : No warppointsFormat settings, Matrix : CustomMuxing mode : Packed bitstreamCodec ID : XVIDCodec ID/Hint : XviDDuration : 10mn 11sBit rate : 2 149 KbpsWidth : 704 pixelsHeight : 528 pixelsDisplay aspect ratio : 5:4Original display aspect ratio : 4:3Frame rate : 25.000 fpsColor space : YUVChroma subsampling : 4:2:0Bit depth : 8 bitsScan type : ProgressiveCompression mode : LossyBits/(Pixel*Frame) : 0.231Stream size : 157 MiB (90%)Writing library : XviD 65
AudioID : 1Format : AC-3Format/Info : Audio Coding 3Mode extension : CM (complete main)Format settings, Endianness : BigCodec ID : 2000Duration : 10mn 9sBit rate mode : ConstantBit rate : 224 KbpsChannel(s) : 2 channelsChannel positions : Front: L RSampling rate : 48.0 KHzBit depth : 16 bitsCompression mode : LossyStream size : 16.3 MiB (9%)Alignment : Aligned on interleavesInterleave, duration : 40 ms (1.00 video frame)Interleave, preload duration : 512 ms

Скриншоты

Other forum [Profile] [PM]
Display posts from previous:    
Reply to topic

The time now is: Today 10:47

All times are GMT + 3 Hours



You cannot post new topics in this forum
You cannot reply to topics in this forum
You cannot edit your posts in this forum
You cannot delete your posts in this forum
You cannot vote in polls in this forum
You cannot attach files in this forum
You cannot download files in this forum