Today is a free download without charge Download

Discovery: Саперы кровавой дороги (серия 1 из 3)/ Sappers of the bloody road (2013) WEB-Rip

Reply to topic
 
Author
Message

UndegraundMen ®

Longevity: 7 years 7 months

Posts: 25145

Торрент-статистика

Post 13-Feb-2013 21:30

[Quote]

-Discovery: Саперы кровавой дороги (1 серия из 3)/ Sappers of the bloody road (2013) WEB-Rip- Русское название: Discovery: Саперы кровавой дороги
Оригинальное название: Sappers of the bloody road
Режиссер / Телекомпания: Discovery Channel
Год выпуска: 2013
Жанр: Документальный
Описание:
Посмотрите, как специальная рота по обезвреживанию дорог ищет и уничтожает самодельные взрывные устройства, которые являются первой причиной гибели солдат в Афганистане.
Возрастные ограничения: 16+
Перевод: Одноголосый закадровый, профессиональный
Видеокодек: H.264
Битрейт видео: ~1723 Кбит/сек
Размер кадра: 856x480
Качество видео: WEB-Rip
Аудиокодек: MP3
Битрейт аудио: 256 Кбит/сек Скриншоты:
       

MediaInfo

Общее
Полное имя : H:\ДОКУМЕНТАЛКИ\Саперы кровавой дороги - 1 часть.avi
Формат : AVI
Формат/Информация : Audio Video Interleave
Размер файла : 603 Мбайт
Продолжительность : 42 м.
Общий поток : 1986 Кбит/сек
Программа кодирования : Lavf52.94.0
Примечание : www.freemake.com
Видео
Идентификатор : 0
Формат : AVC
Формат/Информация : Advanced Video Codec
Профиль формата : [url=mailto:[email protected]][email protected][/url]
Параметр CABAC формата : Да
Параметр ReFrames формата : 2 кадра
Идентификатор кодека : H264
Продолжительность : 42 м.
Битрейт : 1723 Кбит/сек
Ширина : 856 пикселей
Высота : 480 пикселей
Соотношение сторон : 16:9
Режим частоты кадров : Переменный
Частота кадров : 29,970 кадров/сек
Цветовое пространство : YUV
Субдискретизация насыщенности : 4:2:0
Битовая глубина : 8 бит
Тип развёртки : Прогрессивная
Бит/(Пиксели*Кадры) : 0.140
Размер потока : 521 Мбайт (86%)
Библиотека кодирования : x264 core 112 r1834 a51816a
Настройки программы : cabac=1 / ref=1 / deblock=1:0:0 / analyse=0x1:0 / me=dia / subme=2 / psy=1 / psy_rd=0.00:0.00 / mixed_ref=0 / me_range=16 / chroma_me=1 / trellis=0 / 8x8dct=0 / cqm=0 / deadzone=21,11 / fast_pskip=1 / chroma_qp_offset=0 / threads=4 / sliced_threads=0 / nr=0 / decimate=1 / interlaced=0 / constrained_intra=0 / bframes=3 / b_pyramid=0 / b_adapt=1 / b_bias=0 / direct=3 / weightb=0 / open_gop=0 / weightp=2 / keyint=250 / keyint_min=25 / scenecut=40 / intra_refresh=0 / rc_lookahead=40 / rc=abr / mbtree=1 / bitrate=1723 / ratetol=1.0 / qcomp=0.60 / qpmin=10 / qpmax=51 / qpstep=4 / ip_ratio=1.41 / aq=1:1.00
Аудио
Идентификатор : 1
Формат : MPEG Audio
Версия формата : Version 1
Профиль формата : Layer 3
Режим : Joint stereo
Расширение режима : MS Stereo
Идентификатор кодека : 55
Идентификатор кодека/Подсказка : MP3
Продолжительность : 42 м.
Вид битрейта : Постоянный
Битрейт : 256 Кбит/сек
Каналы : 2 канала
Частота : 44,1 КГц
Метод сжатия : С потерями
Размер потока : 77,7 Мбайт (13%)
Выравнивание : Соединение по промежуткам
Продолжительность промежутка : 26 мс. (0,78 видеокадр)
Библиотека кодирования : LAME3.98.4
Время раздачи: с 9:00 до 21:00
Other forum [Profile] [PM]
Display posts from previous:    
Reply to topic

The time now is: Today 03:15

All times are GMT + 3 Hours



You cannot post new topics in this forum
You cannot reply to topics in this forum
You cannot edit your posts in this forum
You cannot delete your posts in this forum
You cannot vote in polls in this forum
You cannot attach files in this forum
You cannot download files in this forum