Today is a free download without charge Download

Dry The River - Live At Westend Festival [2012, Indie Rock / Folk, HDTVRip 720p]

Reply to topic
 
Author
Message

Omen ®

Longevity: 8 years 3 months

Posts: 181087

Торрент-статистика

Post 13-Feb-2013 20:48

[Quote]

Dry The River - Live At Westend Festival
Жанр: Indie Rock / Folk
Продолжительность: 00:26:07
Год выпуска: 2012
Описание: Выступление Dry The River на Westend Festival в Дортмунде 3 ноября 2012
Westend Festival
TV эфир 4 .02.13
TRACKLIST
01. New Ceremony
02. Demons
03. No Rest
04. Bible Belt
05. Lion's Den
Качество: HDTVRip 720p
Контейнер: MKV
Видео кодек: H.264
Аудио кодек: AC3
Видео: AVC, 1272x712, 16:9, 6500 Kbps, 25 fps
Аудио: AC3, 448 Kbps, 48 kHz, 2 ch

MediaInfo

GeneralUnique ID : 228049442907893100098135390507220644825 (0xAB90B99F7ABFBA32BF04E15510A0B3D9)Complete name : K:\Dry_The_River-Live_At_Westend_Festival_(2012)-720p-x264-2013-gFViD\dry_the_river-live_at_westend_festival_(2012)-720p-x264-2013-gfvid.mkvFormat : MatroskaFormat version : Version 4 / Version 2File size : 1.27 GiBDuration : 26mn 7sOverall bit rate : 6 950 KbpsEncoded date : UTC 2010-02-22 21:41:31Writing application : mkvmerge v5.9.0 ('On The Loose') built on Dec 9 2012 15:37:01Writing library : libebml v1.3.0 + libmatroska v1.4.0
VideoID : 2Format : AVCFormat/Info : Advanced Video CodecFormat profile : [email protected] settings, CABAC : YesFormat settings, ReFrames : 4 framesCodec ID : V_MPEG4/ISO/AVCDuration : 26mn 7sBit rate : 6 500 KbpsWidth : 1 272 pixelsHeight : 712 pixelsDisplay aspect ratio : 16:9Frame rate : 25.000 fpsColor space : YUVChroma subsampling : 4:2:0Bit depth : 8 bitsScan type : ProgressiveBits/(Pixel*Frame) : 0.287Stream size : 1.16 GiB (92%)Writing library : x264 core 129 r2245 bc13772Encoding settings : cabac=1 / ref=4 / deblock=1:0:0 / analyse=0x3:0x113 / me=umh / subme=9 / psy=1 / psy_rd=1.00:0.00 / mixed_ref=1 / me_range=32 / chroma_me=1 / trellis=1 / 8x8dct=1 / cqm=0 / deadzone=21,11 / fast_pskip=1 / chroma_qp_offset=-2 / threads=12 / lookahead_threads=2 / sliced_threads=0 / nr=0 / decimate=1 / interlaced=0 / bluray_compat=0 / constrained_intra=0 / bframes=3 / b_pyramid=2 / b_adapt=1 / b_bias=0 / direct=1 / weightb=1 / open_gop=0 / weightp=2 / keyint=250 / keyint_min=25 / scenecut=40 / intra_refresh=0 / rc_lookahead=40 / rc=2pass / mbtree=1 / bitrate=6500 / ratetol=1.0 / qcomp=0.60 / qpmin=0 / qpmax=69 / qpstep=4 / cplxblur=20.0 / qblur=0.5 / ip_ratio=1.40 / aq=1:1.00Default : YesForced : No
AudioID : 1Format : AC-3Format/Info : Audio Coding 3Mode extension : CM (complete main)Format settings, Endianness : BigCodec ID : A_AC3Duration : 26mn 7sBit rate mode : ConstantBit rate : 448 KbpsChannel(s) : 2 channelsChannel positions : Front: L RSampling rate : 48.0 KHzBit depth : 16 bitsCompression mode : LossyDelay relative to video : 72msStream size : 83.7 MiB (6%)Default : YesForced : No

Скриншоты


Other forum [Profile] [PM]
Display posts from previous:    
Reply to topic

The time now is: Today 11:46

All times are GMT + 3 Hours



You cannot post new topics in this forum
You cannot reply to topics in this forum
You cannot edit your posts in this forum
You cannot delete your posts in this forum
You cannot vote in polls in this forum
You cannot attach files in this forum
You cannot download files in this forum