Today is a free download without charge Download

Тайны следствия - 12 (Рената Грицкова) (1-12 серии из 12) [2013.., Россия, Форвард-Фильм, Студия Панорама, Детектив, драма, криминал, SATRip]

Reply to topic
 
Author
Message

Meshanik ®

Gender:

Longevity: 9 years 6 months

Posts: 3866

Location: Los Angeles

Торрент-статистика

Post 13-Feb-2013 18:55

[Quote]

Тайны следствия - 12- Русское название: Тайны следствия - 12
Год выпуска: 2013
Производство: Россия, Форвард-Фильм, Студия Панорама
Жанр: Детектив, драма, криминал
Продолжительность: ~ 00:43:00
Перевод: Не требуется [Оригинал]
Субтитры: Нет-Режиссер: Рената Грицкова
В ролях: Анна Ковальчук, Вячеслав Захаров, Игорь Николаев (II), Александр Новиков (III), Игорь Григорьев (IV), Ольга Павловец, Мирослав Малич, Злата Ильченко, Игорь Соплин, Александр Шпилько, Андрей Шарков, Светлана Щедрина, Юлия Яковлева, Олег Алмазов, Дмитрий Поднозов, Александр Овчинников (III), Николай Смирнов (V), Маргарита Бычкова, Татьяна Бондаренко (II), Алексей Митин, Екатерина Зорина, Наталья Зацепина, Евгений Новоселов (II)
Описание фильма:
Детективный сериал, повествующий о нелегких буднях работников прокуратуры, ежедневно лицом к лицу сталкивающихся с жестоким миром преступности.
Мария Швецова продолжает трудиться в районном следственном комитете под руководством Николая Филонова. Каждый день становится для неё настоящим испытанием, ведь ей приходится бороться не только и не столько с преступностью, сколько с косностью и откровенным саботажем реальной следственной работы со стороны руководства. К счастью, коллеги и друзья не оставляют Машу в трудную минуту. Новый следователь Колонкова, с которой Швецова уже успела подружиться, Кораблёв, вернувшийся на службу в полицию, и неизменный друг и учитель Ковин всегда помогут ей в любом самом сложном деле. Кроме того, дома её ждёт дружная семья, вновь пополнившаяся вернувшимся из Англии старшим сыном Швецовой Костиком...- -Качество: SATRip - AVC [Исходник DVB]
Формат: MKV
Видео кодек: H.264
Аудио кодек: AC3
Видео: x264, 720 х 432**768 х 432 (1.7778=16:9), 25,000 кадр/сек, ~ 1598 Кбит/сек, ~ 0.206 bit/pixel
Аудио: AC3, 48.0 KHz, 2 канала(ов), 256 Kbps
-

Внимание! Раздача ведётся путём добавления новых серий. Описание обновления торрента:

Внимание!
Раздача ведётся путём добавления новых серий; при каждом добавлении создётся новый торрент. Чтобы начать докачку новой серии, пользователям необходимо сделать следующее:
(1) остановить скачивание,
(2) удалить старый торрент у себя из клиента (старые серии удалять не надо),
(3) скачать новый торрент и запустить его у себя в клиенте вместо старого, при этом указать клиенту путь в старую папку куда и должно происходить скачивание новых серий.
Ваш клиент при этом должен произвести хеширование (проверку) старой папки (если не производит сам - помогите ему сделать это), и будет докачивать только те серии которых у вас ещё нет. Старые серии при этом не удаляются, а продолжают раздаваться!
Eсли вы уже удалили старые серии, то предотвратить повторную закачку старых серий можно, отжав галочку в соответсвующих местах при запуске нового торрента. По возможности, желательно не удалять старые серии как можно дольше чтобы релизёр не столько продолжал раздавать старые серии, а смог сконцентрироваться на новых.

MediaInfo

Код:
Complete name : Тайны следствия 12.01-02 серии.2012.SATRip-AVC.Metla111.mkv
Format : Matroska
Format version : Version 2
File size : 1.09 GiB
Duration : 1h 24mn
Overall bit rate : 1 856 Kbps
Encoded date : UTC 2013-02-12 06:39:36
Writing application : mkvmerge v5.8.0 ('No Sleep / Pillow') built on Sep 2 2012 15:37:04
Writing library : libebml v1.2.3 + libmatroska v1.3.0
Video
ID : 1
Format : AVC
Format/Info : Advanced Video Codec
Format profile : [email protected]
Format settings, CABAC : Yes
Format settings, ReFrames : 10 frames
Codec ID : V_MPEG4/ISO/AVC
Duration : 1h 24mn
Bit rate : 1 598 Kbps
Width : 720 pixels
Height : 432 pixels
Display aspect ratio : 16:9
Frame rate mode : Constant
Frame rate : 25.000 fps
Color space : YUV
Chroma subsampling : 4:2:0
Bit depth : 8 bits
Scan type : Progressive
Bits/(Pixel*Frame) : 0.206
Stream size : 941 MiB (84%)
Writing library : x264 core 125 r2208 d9d2288
Encoding settings : cabac=1 / ref=10 / deblock=1:-3:-3 / analyse=0x3:0x113 / me=umh / subme=9 / psy=1 / psy_rd=1.00:0.20 / mixed_ref=1 / me_range=32 / chroma_me=1 / trellis=2 / 8x8dct=1 / cqm=0 / deadzone=21,11 / fast_pskip=1 / chroma_qp_offset=-3 / threads=12 / lookahead_threads=2 / sliced_threads=0 / nr=0 / decimate=0 / interlaced=0 / bluray_compat=0 / constrained_intra=0 / bframes=8 / b_pyramid=2 / b_adapt=2 / b_bias=0 / direct=3 / weightb=1 / open_gop=0 / weightp=2 / keyint=250 / keyint_min=25 / scenecut=40 / intra_refresh=0 / rc=2pass / mbtree=0 / bitrate=1598 / ratetol=1.0 / qcomp=0.70 / qpmin=0 / qpmax=69 / qpstep=4 / cplxblur=20.0 / qblur=0.5 / ip_ratio=1.40 / pb_ratio=1.30 / aq=1:1.00
Default : Yes
Forced : No
Color primaries : BT.601 PAL
Transfer characteristics : BT.470 System B, BT.470 System G
Matrix coefficients : BT.601
Audio
ID : 2
Format : AC-3
Format/Info : Audio Coding 3
Mode extension : CM (complete main)
Format settings, Endianness : Big
Codec ID : A_AC3
Duration : 1h 24mn
Bit rate mode : Constant
Bit rate : 256 Kbps
Channel(s) : 2 channels
Channel positions : Front: L R
Sampling rate : 48.0 KHz
Bit depth : 16 bits
Compression mode : Lossy
Stream size : 154 MiB (14%)
Default : Yes
Forced : No
Скриншоты:
         
Other forum [Profile] [PM]
Similar theme
Forum Topic Author Torrent Replies Last Post
./templates/default/images/folder_dl.gif Отечественные cериалы Тайный город / Сезон: 1 / Серии: 1-8 из 8 (Александр Мохов) [2014 г., фэнтези,, DVDRip] Omen
1 | 0

0 | 1122

6

2014-09-30 11:00
Omen Latest
./templates/default/images/folder_dl.gif Приключения и квесты Secrets of the Dark: The Flower of Shadow Collector\'s Edition / Тайны Тьмы: Цветок Теней. Коллекционное издание [P] [RUS / ENG] (2014) Omen
1 | 0

0 | 2226

23

2015-06-11 12:04
Omen Latest
Display posts from previous:    
Reply to topic

The time now is: Today 04:37

All times are GMT + 3 Hours



You cannot post new topics in this forum
You cannot reply to topics in this forum
You cannot edit your posts in this forum
You cannot delete your posts in this forum
You cannot vote in polls in this forum
You cannot attach files in this forum
You cannot download files in this forum