Today is a free download without charge Download

Немой (1-4 серии из 4) (2012) SATRip

Reply to topic
 
Author
Message

UndegraundMen ®

Longevity: 8 years 9 months

Posts: 25145

Торрент-статистика

Post 13-Feb-2013 16:48

[Quote]

-Немой (1-4 серии из 4) (2012) SATRip- Русское название: Немой
Год выпуска: 2012
Жанр: Криминал, детектив
Производство: Украина
Дата мировой премьеры: 10 февраля 2013

Режиссер: Александр Итыгилов мл.
Актеры: Вячеслав Разбегаев, Леонид Громов, Михаил Тарабукин, Елена Шилова, Георгий Хостикоев, Андрей Саминин, Надежда Борисова, Олег Савкин, Владимир Горянский, Дмитрий Суржиков, Михаил Жонин, Виталина Библив, Игорь Афанасьев, Саак Дурян, Вадим Кононов, Антон Сладкевич, Михаил Игнатов
Описание фильма:
Так сложились обстоятельства, что в морозную зимнюю ночь молодые люди Гоша, Даша и Валерий вынуждены искать спасения от холода. Поскольку у друзей нет другого выхода, они залезают в чужой дом. Здесь они оказываются под дулом ружья странного человека, которого принимают за хозяина дома. Человек молчит, словно немой, и не снимает маску волка с лица. «Хозяин» проявляет терпимость и гостеприимство, он угощает незваных гостей коньяком и чаем, помогает им завести заглохшую машину и вытащить ее из сугроба. Но когда гости засыпают, немой забирает из потайного сейфа крупную сумму денег, снимает со стены самую ценную картину, а сам прячется в потайной комнате…
Продолжительность:
Одной серии: ~ 00:44:11
Весь фильм: 00:44:00 х 4
Качество видео: SATRip
Видеокодек: xvid
Битрейт видео: ~1531 Кбит/сек
Размер кадра: 704х368
Аудио: (MP3, 2 ch) 128 Кбит/сек, Русский

MediaInfo

Общее
Полное имя : I:\Kino\Немой\Nemoj.(01-04).2012.nnm.SATRip\Nemoj.03s.2013.SATRip.avi
Формат : AVI
Формат/Информация : Audio Video Interleave
Размер файла : 529 Мбайт
Продолжительность : 44 м.
Общий поток : 1669 Кбит/сек
Программа кодирования : VirtualDubMod 1.5.10.2 (build 2540/release)
Библиотека кодирования : VirtualDubMod build 2540/release
Видео
Идентификатор : 0
Формат : MPEG-4 Visual
Профиль формата : Advanced [email protected]
Параметр BVOP формата : 2
Параметр QPel формата : Нет
Параметр GMC формата : Без точки перехода
Параметр матрицы формата : Default (MPEG)
Идентификатор кодека : XVID
Идентификатор кодека/Подсказка : XviD
Продолжительность : 44 м.
Битрейт : 1531 Кбит/сек
Ширина : 704 пикселя
Высота : 368 пикселей
Соотношение сторон : 1,913
Частота кадров : 25,000 кадров/сек
Цветовое пространство : YUV
Субдискретизация насыщенности : 4:2:0
Битовая глубина : 8 бит
Тип развёртки : Прогрессивная
Метод сжатия : С потерями
Бит/(Пиксели*Кадры) : 0.236
Размер потока : 486 Мбайт (92%)
Библиотека кодирования : XviD 65
Аудио
Идентификатор : 1
Формат : MPEG Audio
Версия формата : Version 1
Профиль формата : Layer 3
Режим : Joint stereo
Идентификатор кодека : 55
Идентификатор кодека/Подсказка : MP3
Продолжительность : 44 м.
Вид битрейта : Постоянный
Битрейт : 128 Кбит/сек
Каналы : 2 канала
Частота : 48,0 КГц
Метод сжатия : С потерями
Размер потока : 40,6 Мбайт (8%)
Выравнивание : Соединение по промежуткам
Продолжительность промежутка : 40 мс. (1,00 видеокадр)
Время предзагрузки промежутка : 504 мс.
Библиотека кодирования : LAME3.90.3ЄЄЄЄЄЄЄЄЄЄ
Скриншоты:      
     
Время раздачи: С 09:00до 24:00 мск
Other forum [Profile] [PM]
Display posts from previous:    
Reply to topic

The time now is: Today 18:23

All times are GMT + 3 Hours



You cannot post new topics in this forum
You cannot reply to topics in this forum
You cannot edit your posts in this forum
You cannot delete your posts in this forum
You cannot vote in polls in this forum
You cannot attach files in this forum
You cannot download files in this forum