Today is a free download without charge Download

Не плачь по мне, Аргентина! (сезон 1, 1-7 серия из 16) (2011) SATRip (обновляемая)

Reply to topic
 
Author
Message

UndegraundMen ®

Longevity: 8 years 9 months

Posts: 25145

Торрент-статистика

Post 13-Feb-2013 12:32

[Quote]

-Не плачь по мне, Аргентина! (сезон 1, 1-7 серия из 16) (2011) SATRip (обновляемая) - Русское название: Не плачь по мне, Аргентина!
Производство: «АМЕДИА», IKa film
Год выпуска: 2011
Жанр: Комедия, Мелодрама

Дата российской премьеры: 4 февраля 2012
Режиссер: Владимир Устюгов, Вано Бурдули
Актеры: Анна Снаткина, Анастасия Заворотнюк, Дарья Мороз, Наталия Вдовина, Георгий Дронов, Мария Свирина, Вова Свирин, Александр Арсентьев, Дмитрий Ульянов, Юлия Беретта, Макар Запорожский, Анна Антонова, Ольга Дибцева, Александра Мельник, Ника Балина, Александр Ратников, Елена Медведева, Никита Грибанов, Владислав Ветров, Валерий Сторожик, Евгений Воловенко, Ольга Бешуля, Галина Петрова, Алёна Яковлева, Сергей Апрельский, Дмитрий Супонин, Олег Акулич, Ола Кейру, Лилия Мэй
Описание фильма:
В самый неудачный период своей жизни каждая из героинь — Света, Маша, Кристина и Алла — случайно оказываются в клубе танго «Не плачь по мне, Аргентина!».
Здесь можно танцевать с настоящими латиноамериканскими мачо, не говорящими ни слова по-русски. Света — сотрудница «желтой газеты», у нее никак не складываются отношения с мужчинами. Маша так самозабвенно посвящала себя семье, что теперь ее брак на грани распада. Кристина любой ценой хочет выйти замуж и этим отталкивает любимого. Алла — успешная бизнес-леди, но сильный характер мешает ей в личной жизни.
В клубе девушек встречает хозяин «Аргентины» — дока в танцах и женщинах, харизматичный Рудольф. Он уверен, что девушки оказались здесь не случайно, танго поможет им решить все их проблемы!
На протяжении истории подруги будут искать «золотую середину» в отношениях с мужчинами, помогая, но иногда и мешая друг другу советами, которые, порой, кажутся странными и нелогичными, но они всегда от души…
Продолжительность: 7 х ~ 00:50:00
Качество видео: SATRip
Видеокодек: Xvid
Битрейт видео: ~1273 Кбит/сек
Размер кадра: 704х400
Аудиокодек: MP3
Битрейт аудио: 192 Кбит/сек
Скриншоты: Украинские (не отключаемые)

Mediainfo:

Общее
Полное имя : E:\Не плачь по мне, Аргентина!\Ne.plach.po.mne.Argentina.01.serija.avi
Формат : AVI
Формат/Информация : Audio Video Interleave
Размер файла : 550 Мбайт
Продолжительность : 52 м.
Общий поток : 1474 Кбит/сек
Программа кодирования : VirtualDubMod 1.5.10.3 (build 2550/release)
Библиотека кодирования : VirtualDubMod build 2550/release
Видео
Идентификатор : 0
Формат : MPEG-4 Visual
Профиль формата : Advanced [email protected]
Параметр BVOP формата : 1
Параметр QPel формата : Нет
Параметр GMC формата : Без точки перехода
Параметр матрицы формата : Default (H.263)
Режим смешивания : Сжатый битовый поток
Идентификатор кодека : XVID
Идентификатор кодека/Подсказка : XviD
Продолжительность : 52 м.
Битрейт : 1273 Кбит/сек
Ширина : 704 пикселя
Высота : 400 пикселей
Соотношение сторон : 16:9
Частота кадров : 25,000 кадров/сек
Цветовое пространство : YUV
Субдискретизация насыщенности : 4:2:0
Битовая глубина : 8 бит
Тип развёртки : Прогрессивная
Метод сжатия : С потерями
Бит/(Пиксели*Кадры) : 0.181
Размер потока : 474 Мбайт (86%)
Библиотека кодирования : XviD 64
Аудио
Идентификатор : 1
Формат : MPEG Audio
Версия формата : Version 1
Профиль формата : Layer 3
Режим : Joint stereo
Расширение режима : MS Stereo
Идентификатор кодека : 55
Идентификатор кодека/Подсказка : MP3
Продолжительность : 52 м.
Вид битрейта : Постоянный
Битрейт : 192 Кбит/сек
Каналы : 2 канала
Частота : 48,0 КГц
Метод сжатия : С потерями
Размер потока : 71,6 Мбайт (13%)
Выравнивание : Разделение по промежуткам
Продолжительность промежутка : 40 мс. (1,00 видеокадр)
Время предзагрузки промежутка : 500 мс.
Библиотека кодирования : LAME3.98.2

Внимание! Раздача ведётся путём добавления новых серий:

при каждом добавлении создаётся новый торрент.
Чтобы начать докачку новой серии, пользователям необходимо сделать следующее:
(1) остановить скачивание;
(2) удалить старый торрент у себя из клиента (старые серии удалять не надо);
(3) скачать новый торрент и запустить его у себя в клиенте вместо старого, при этом указать клиенту путь в старую папку куда и должно происходить скачивание новых серий.Ваш клиент при этом должен произвести хеширование (проверку) старой папки (если не производит сам - помогите ему сделать это), и будет докачивать только те серии которых у вас ещё нет. Старые серии при этом не удаляются, а продолжают раздаваться!Eсли вы уже удалили старые серии, то предотвратить повторную закачку старых серий можно, отжав галочку в соответствующих местах при запуске нового торрента.
Скриншоты:
       
 
Внимание! Раздача полностью перезалита.
Сериал переснят, вырезаны моменты с Нелли Уваровой, в связи с её уходом с проекта.
Сериал урезан до 16 серий.
Время раздачи: 24/7 - круглосуточно
Other forum [Profile] [PM]
Display posts from previous:    
Reply to topic

The time now is: Today 22:58

All times are GMT + 3 Hours



You cannot post new topics in this forum
You cannot reply to topics in this forum
You cannot edit your posts in this forum
You cannot delete your posts in this forum
You cannot vote in polls in this forum
You cannot attach files in this forum
You cannot download files in this forum