Today is a free download without charge Download

Discovery: Золотая Лихорадка. Аляска. Ультиматум / Gold Rush. Alaska. Ultimatum (2012) WEB-Rip [Сезон 3: эпизод 5]

Reply to topic
 
Author
Message

UndegraundMen ®

Longevity: 7 years 7 months

Posts: 25145

Торрент-статистика

Post 13-Feb-2013 12:32

[Quote]

-Discovery: Золотая Лихорадка. Аляска. Ультиматум / Gold Rush. Alaska. Ultimatum (2012) WEB-Rip[Сезон 3: эпизод 5]- Русское название: Discovery: Золотая Лихорадка. Аляска. Ультиматум
Оригинальное название: Gold Rush. Alaska. Ultimatum
Режиссер / Телекомпания: Discovery Channel
Год выпуска: 2012
Жанр: Документальный
Описание:
Всего героев передачи шестеро. Все они отважные искатели приключений, привыкшие к трудностям и жаждущие испытать свои возможности в таком экстремальном деле, как поиски золота в одном из самых суровых мест нашей планеты - Аляске.
05. Ультиматум/Ultimatum
Инвестор ставит Хоффману ультиматум. Он должен в течении следующих трех недель добыть 100 унций золота, иначе они разрывают все отношения и прекращают инвестировать проект.
Продолжительность: 00:44:21
Перевод: Одноголосый закадровый, профессиональный
Видеокодек: Xvid
Битрейт видео: ~1781 Кбит/сек
Размер кадра: 640x480
Качество видео: WEB-Rip
Аудиокодек: MP3
Битрейт аудио: 320 Кбит/сек Скриншоты:
       

MediaInfo

Общее
Полное имя : H:\ДОКУМЕНТАЛКИ\3oлoтaя лиxopaдкa З ceзoн 5 cepия.avi
Формат : AVI
Формат/Информация : Audio Video Interleave
Размер файла : 670 Мбайт
Продолжительность : 44 м.
Общий поток : 2113 Кбит/сек
Программа кодирования : Lavf51.12.1
Видео
Идентификатор : 0
Формат : xvid
Идентификатор кодека : xvid
Продолжительность : 44 м.
Битрейт : 1781 Кбит/сек
Ширина : 640 пикселей
Высота : 480 пикселей
Соотношение сторон : 4:3
Частота кадров : 25,000 кадров/сек
Бит/(Пиксели*Кадры) : 0.232
Размер потока : 565 Мбайт (84%)
Аудио
Идентификатор : 1
Формат : MPEG Audio
Версия формата : Version 1
Профиль формата : Layer 3
Режим : Joint stereo
Расширение режима : MS Stereo
Идентификатор кодека : 55
Идентификатор кодека/Подсказка : MP3
Продолжительность : 44 м.
Вид битрейта : Постоянный
Битрейт : 320 Кбит/сек
Каналы : 2 канала
Частота : 44,1 КГц
Метод сжатия : С потерями
Размер потока : 102 Мбайт (15%)
Выравнивание : Соединение по промежуткам
Продолжительность промежутка : 26 мс. (0,65 видеокадр)
Время предзагрузки промежутка : 26 мс.
Библиотека кодирования : LAME3.97
Время раздачи: с 9:00 до 21:00
Other forum [Profile] [PM]
Display posts from previous:    
Reply to topic

The time now is: Today 18:43

All times are GMT + 3 Hours



You cannot post new topics in this forum
You cannot reply to topics in this forum
You cannot edit your posts in this forum
You cannot delete your posts in this forum
You cannot vote in polls in this forum
You cannot attach files in this forum
You cannot download files in this forum