Today is a free download without charge Download

Миссия «Серенити» / Serenity (Джосс Уидон / Joss Whedon) [ 2005 , США , фантастика, боевик, триллер , BDRip1080р ]

Reply to topic
 
Author
Message

Delia ®

Gender:

Longevity: 10 years

Posts: 1821

Торрент-статистика

Post 13-Feb-2013 09:37

[Quote]

-Миссия «Серенити»Serenity«Хорошие, плохие, злые»-- Год выпуска: 2005
Страна: США
Жанр: фантастика, боевик, триллер, приключения
Продолжительность: 01:59:02
Перевод: Профессиональный (полное дублирование)
Режиссер: Джосс Уидон / Joss Whedon В ролях: Натан Филлион (Mal), Джина Торрес (Zoe), Алан Тьюдик (Wash), Морена Баккарин (Inara), Адам Болдуин (Jayne), Джуэл Стэйт (Kaylee), Шон Маэр (Simon), Саммер Глау (River), Рон Гласс (Shepherd Book), Чиветель Эджиофор (The Operative), Дэвид Крамхолц (Mr. Universe), Майкл Хичкок (Dr. Mathias)-Описание: Космический «морской волк» и ветеран Гражданской Галактической войны Малькольм «Мэл» Рейнольдс - теперь всего лишь капитан транспортного корабля. Когда они взяли на борт пассажиров - молодого доктора и его странную сестру с телепатическими способностями, ни он, ни его товарищи не предполагали, в какую историю ввяжутся. Спасаясь сразу от нескольких могущественных врагов - и от военных сил тоталитарного Вселенского Альянса, и от ужасных каннибалов Жнецов, команда корабля даже не догадывалась, какая угроза скрывается на борту «Серенити».-
MPAA: - Детям до 13 лет просмотр не желателен--
Качество: BDRip
Контейнер: MKV
Видео: AVC, 1920x818 (2.35:1), 8665 kbps, 23,976 fps, 0,230 bpp
Аудио №1: русский /; AC3 /; 5.1 /; 48 kHz /; 448 kbps /; 16 bit
Аудио №2: английский /; AC3 /; 5.1 /; 48 kHz /; 448 kbps /; 16 bit
Субтитры №1: русские
Субтитры №2: английские
Навигация по главам: есть--

Media Info

General
Unique ID : 212244121560697762559478095635288866166 (0x9FACBB1DCB9D3E519CF4256CC2AABD76)
Complete name : E:\SERENITY.2005.1080p.F-HD.mkv
Format : Matroska
Format version : Version 4 / Version 2
File size : 7.95 GiB
Duration : 1h 59mn
Overall bit rate : 9 557 Kbps
Encoded date : UTC 2013-02-13 04:21:09
Writing application : mkvmerge v6.0.0 ('Coming Up For Air') built on Jan 20 2013 09:52:00
Writing library : libebml v1.3.0 + libmatroska v1.4.0
Video
ID : 1
Format : AVC
Format/Info : Advanced Video Codec
Format profile : [email protected]
Format settings, CABAC : Yes
Format settings, ReFrames : 5 frames
Codec ID : V_MPEG4/ISO/AVC
Duration : 1h 59mn
Bit rate : 8 665 Kbps
Width : 1 920 pixels
Height : 818 pixels
Display aspect ratio : 2.35:1
Frame rate : 23.976 fps
Color space : YUV
Chroma subsampling : 4:2:0
Bit depth : 8 bits
Scan type : Progressive
Bits/(Pixel*Frame) : 0.230
Stream size : 7.04 GiB (89%)
Writing library : x264 core 129 r2245kMod bc13772
Encoding settings : cabac=1 / ref=5 / deblock=1:-3:-3 / analyse=0x3:0x113 / me=umh / subme=10 / psy=1 / fade_compensate=0.00 / psy_rd=1.00:0.05 / mixed_ref=1 / me_range=42 / chroma_me=1 / trellis=2 / 8x8dct=1 / cqm=0 / deadzone=21,11 / fast_pskip=0 / chroma_qp_offset=-3 / threads=6 / lookahead_threads=1 / sliced_threads=0 / nr=0 / decimate=1 / interlaced=0 / bluray_compat=0 / constrained_intra=0 / bframes=9 / b_pyramid=2 / b_adapt=2 / b_bias=0 / direct=3 / weightb=1 / open_gop=0 / weightp=2 / keyint=250 / keyint_min=23 / scenecut=40 / intra_refresh=0 / rc=2pass / mbtree=0 / bitrate=8665 / ratetol=1.0 / qcomp=0.70 / qpmin=0 / qpmax=69 / qpstep=4 / cplxblur=20.0 / qblur=0.5 / ip_ratio=1.40 / pb_ratio=1.30 / aq=3:0.90
Language : English
Default : Yes
Forced : No
Matrix coefficients : BT.709-5, BT.1361, IEC 61966-2-4 709, SMPTE RP177
Audio #1
ID : 2
Format : AC-3
Format/Info : Audio Coding 3
Mode extension : CM (complete main)
Codec ID : A_AC3
Duration : 1h 59mn
Bit rate mode : Constant
Bit rate : 448 Kbps
Channel(s) : 6 channels
Channel positions : Front: L C R, Side: L R, LFE
Sampling rate : 48.0 KHz
Bit depth : 16 bits
Compression mode : Lossy
Stream size : 381 MiB (5%)
Language : Russian
Default : Yes
Forced : No
Audio #2
ID : 3
Format : AC-3
Format/Info : Audio Coding 3
Mode extension : CM (complete main)
Codec ID : A_AC3
Duration : 1h 59mn
Bit rate mode : Constant
Bit rate : 448 Kbps
Channel(s) : 6 channels
Channel positions : Front: L C R, Side: L R, LFE
Sampling rate : 48.0 KHz
Bit depth : 16 bits
Compression mode : Lossy
Stream size : 381 MiB (5%)
Language : English
Default : No
Forced : No
Text #1
ID : 4
Format : UTF-8
Codec ID : S_TEXT/UTF8
Codec ID/Info : UTF-8 Plain Text
Language : Russian
Default : No
Forced : No
Text #2
ID : 5
Format : UTF-8
Codec ID : S_TEXT/UTF8
Codec ID/Info : UTF-8 Plain Text
Language : English
Default : No
Forced : No
Menu
00:00:00.000 : en:Living Weapon
00:05:01.759 : en:A Better World
00:09:32.446 : en:Aboard Serenity
00:14:50.097 : en:Going For a Ride
00:19:50.856 : en:Reavers
00:29:14.002 : en:Triggered
00:36:19.260 : en:Mr. Universe
00:44:10.272 : en:Safe Haven
00:49:55.701 : en:Civilized Resolution
00:55:45.050 : en:Posing a Threat
00:59:29.315 : en:Miranda
01:04:46.257 : en:"Just Believe"
01:09:14.733 : en:Suicide Mission
01:13:34.785 : en:Learning the Secret
01:22:39.579 : en:Caught in the Middle
01:30:19.580 : en:Can't Stop the Signal
01:36:58.479 : en:Fighting For a Belief
01:45:57.726 : en:Do We Have an Order?
01:47:38.118 : en:It's Not Over
01:53:22.670 : en:End Titles
01:58:55.962 : en:Chapter 21

Знаете ли Вы, что...

  • Студия Universal осуществила беспрецедентную акцию, проведя несколько предварительных просмотров еще незаконченного фильма. Они проходили в но­ябре 2004 года, а также в мае и в июне 2005-го в различных городах США, а 22 июля 2005 года просмотр состоялся в Австралии. Кар­тина вышла в прокат только 30 сентября 2005 года.
  • Пытаясь заставить Ривер заснуть, доктор Сай­мон Тэм произносит на русском языке фразу «Это курам на смех».
  • В сцене похорон на Кэйли надет медальон с изображением китайского символа счастья, кото­рый, как правило, используется на свадьбах.
  • В фильме насчитывается 74 убитых.
  • Название космического корабля «Серенити» (оно же название самого фильма в оригинале) переводится с английского языка как «безмятежность», «спокойствие», «умиротворённость». Символика этого названия в русском переводе фильма полностью утрачена.
  • Пилот «Серенити» Уош носит куртку с эмблемой международной программы космических полётов «Интеркосмос» на одном рукаве и эмблемой миссии космолёта «Космонавт Леонов» из фильма «Космическая одиссея 2010» (1984) на другом.
  • В звездной системе, где обитают герои фильма, довольно распространен китайский язык, в частности, именно на нем они предпочитают употреблять бранные выражения.
  • Этот фильм - первый продукт студии Universal, вышедший на HD-DVD.
  • В личном деле Мэла, которое просматривал Оперативник, указана дата рождения - 20 сентября 2468 года. Вероятно, это отсылка к премьере сериала «Firefly», премьера которого состоялась 20 сентября 2002 года. Кроме того, 20 сентября 1968 года родился сценарист и продюсер сериала Бен Эдлунд.
  • Пушка, установленная на «Серенити» командой, - это германская 20мм зенитная пушка Flak 38 времен Второй мировой войны.


Скриншоты

       
       

_________________
Человек – это канат, натянутый между животным и сверхчеловеком, – канат над пропастью.
В человеке ценно то, что он мост, а не цель. Фридрих Ницше
Other forum [Profile] [PM]
Display posts from previous:    
Reply to topic

The time now is: Today 00:05

All times are GMT + 3 Hours



You cannot post new topics in this forum
You cannot reply to topics in this forum
You cannot edit your posts in this forum
You cannot delete your posts in this forum
You cannot vote in polls in this forum
You cannot attach files in this forum
You cannot download files in this forum