Today is a free download without charge Download

Трава под снегом (4 серии из 4) (2010) DVD9

Reply to topic
 
Author
Message

UndegraundMen ®

Longevity: 8 years 9 months

Posts: 25145

Торрент-статистика

Post 13-Feb-2013 09:28

[Quote]

-Трава под снегом (4 серии из 4) (2010) DVD9- Русское название: Трава под снегом
Год выпуска: 2010
Производство: Россия, Украина, Кинокомпания Star Media
Жанр: Мелодрама
Язык: Оригинал (русский)
Субтитры: Отсутствуют-Дата российской премьеры: 4 сентября 2010
Дата выхода DVD релиза: 21 сентября 2010-Режиссер: Владимир Янощук
Актеры: Татьяна Арнтгольц, Алексей Горбунов, Павел Баршак, Александр Дробитько, Мария Звонарева, Федор Лавров, Анна Саливанчук, Яна Соболевская, Владимир Стеклов, Сергей Устюжанин
Описание фильма:
Сестры Леся и Саша воспитывались в интеллигентной, но бедной семье. Саша — гордость родителей, умница и красавица. Леся — обыкновенная девочка, искренне отдающая предпочтение ценностям материальным. Все меняется после гибели родителей. Саша, продав квартиру и бросив на попечение сестры рожденного вне брака пятилетнего сына, уезжает искать счастья в Америку. Леся выходит замуж за человека, семья которого служит богатому и властному Командору. Ее благополучный брак рушится, когда на вечеринке в доме хозяина в состоянии гипнотического оцепенения она позволяет Командору затащить себя в спальню. Леся остается одна без дома и работы с пятилетним племянником на руках…- -Продолжительность: 4 х ~ 00:45:00
Качество видео: DVD9
Видеокодек: MPEG-2
Битрейт видео: ~5799 Кбит/сек
Размер кадра: 720х[email protected]
Аудиокодек: AC3 2.0
Битрейт аудио: AC3, 2 ch, 192 Кбит/с - русский

Дополнительно

Отсутствует

MediaInfo

Общее
Полное имя : G:\Trava.pod.snegom.(1-4.serii.iz.4).2010.DVD9\VIDEO_TS\VTS_01_1.VOB
Формат : MPEG-PS
Размер файла : 1024 Мбайт
Продолжительность : 23 м.
Общий поток : 6112 Кбит/сек
Видео
Идентификатор : 224 (0xE0)
Формат : MPEG Video
Версия формата : Version 2
Профиль формата : [email protected]
Параметр BVOP формата : Да
Параметр матрицы формата : По умолчанию
Продолжительность : 23 м.
Вид битрейта : Переменный
Битрейт : 5799 Кбит/сек
Номинальный битрейт : 9000 Кбит/сек
Ширина : 720 пикс.
Высота : 576 пикс.
Соотношение сторон : 4:3
Частота кадров : 25,000 кадр/сек
Стандарт вещания : PAL
Цветовое пространство : YUV
Подвыборка цветности : 4:2:0
Битовая глубина : 8 бит
Тип развёртки : Чересстрочная
Порядок развёртки : Верхнее поле первое
Метод сжатия : С потерями
Бит/(Пиксели*Кадры) : 0.559
Размер потока : 971 Мбайт (95%)
Аудио
Идентификатор : 189 (0xBD)-128 (0x80)
Формат : AC-3
Формат/Информация : Audio Coding 3
Расширение режима : CM (complete main)
Режим смешивания : DVD-Video
Продолжительность : 23 м.
Вид битрейта : Постоянный
Битрейт : 192 Кбит/сек
Канал(ы) : 2 канала(ов)
Расположение каналов : Front: L R
Частота : 48,0 КГц
Битовая глубина : 16 бит
Метод сжатия : С потерями
Размер потока : 32,2 Мбайт (3%)
Меню

DVDInfo

Title: HITACHI
Size: 7.37 Gb ( 7 724 074 KBytes ) - DVD-9
Enabled regions: 1, 2, 3, 4, 5, 6, 7, 8
VTS_01 :
Play Length: 00:45:20+00:45:15+00:44:26+00:45:14
Video: PAL 4:3 (720x576) VBR
Audio:
Russian (Dolby AC3, 2 ch)
Menu Video:
PAL 4:3 (720x576) VBR
Menu Subtitles:
Not specified
Menu Russian Language Unit :
Root Menu
Скриншоты:
               
Other forum [Profile] [PM]
Display posts from previous:    
Reply to topic

The time now is: Today 23:46

All times are GMT + 3 Hours



You cannot post new topics in this forum
You cannot reply to topics in this forum
You cannot edit your posts in this forum
You cannot delete your posts in this forum
You cannot vote in polls in this forum
You cannot attach files in this forum
You cannot download files in this forum