Сегодня идет свободное скачивание без начисления Download

Подранки (1976) DVD5

Ответить на тему
 
Автор
Сообщение

UndegraundMen ®

Стаж: 5 лет 7 месяцев

Сообщений: 25860

Торрент-статистика

Пост 13-Фев-2013 09:13

[Цитировать]

-Подранки (1976) DVD5- Русское название: Подранки
Год выпуска: 1976
Жанр: Драма
Описание фильма:
Печаль и радость, вера и отчаянье тесно переплетаются в сознании писателя Алексея Бертенева, когда память возвращает его в детство. А детство этого поколения было нелегким — оно пришлось на суровые годы войны.
Режиссер: Николай Губенко
Актеры: Юозас Будрайтис, Георгий Бурков, Александр Калягин, Алеша Черствов, Жанна Болотова, Ролан Быков, Бухути Закариадзе, Евгений Евстигнеев, Николай Губенко, Наталья Гундарева, Ольга Строгова, Пантелеймон Крымов, Зоя Евсеева, Даниил Нетребин, Людмила Шагалова, Валентина Березуцкая, Николай Волков, Дмитрий Бессонов
Продолжительность: 01:28:09
Субтитры: отсутствуют

Видеокодек: MPEG-2
Битрейт видео: ~5500 Кбит/сек
Размер кадра: 720 х [email protected] х 576
Качество видео: DVD5
Аудиокодек: PCM
Битрейт аудио: 768 Кбит/сек

MediaInfo:

Общее
Полное имя : F:\Подранки (Лицензия DVD) Драма\VIDEO_TS\VTS_02_1.VOB
Формат : MPEG-PS
Размер файла : 1024 Мбайт
Продолжительность : 22 м.
Общий поток : 6386 Кбит/сек
Видео
Идентификатор : 224 (0xE0)
Формат : MPEG Video
Версия формата : Version 2
Профиль формата : [email protected]
Параметр BVOP формата : Да
Параметр матрицы формата : По умолчанию
Параметры GOP формата : M=3, N=15
Продолжительность : 22 м.
Вид битрейта : Постоянный
Битрейт : 5500 Кбит/сек
Ширина : 720 пикс.
Высота : 576 пикс.
Соотношение сторон : 4:3
Частота кадров : 25,000 кадр/сек
Стандарт вещания : PAL
Цветовое пространство : YUV
Подвыборка цветности : 4:2:0
Битовая глубина : 8 бит
Тип развёртки : Чересстрочная
Порядок развёртки : Верхнее поле первое
Метод сжатия : С потерями
Бит/(Пиксели*Кадры) : 0.530
Размер потока : 880 Мбайт (86%)
Аудио
Идентификатор : 189 (0xBD)-160 (0xA0)
Формат : PCM
Параметр Endianness формата : Big
Параметр Sign формата : Signed
Режим смешивания : DVD-Video
Продолжительность : 22 м.
Вид битрейта : Постоянный
Битрейт : 768 Кбит/сек
Каналы : 1 канал
Расположение каналов : Front: C
Частота : 48,0 КГц
Битовая глубина : 16 бит
Задержка видео : 652 мс.
Размер потока : 123 Мбайт (12%)
Меню

DVDInfo:

Title: Подранки (Лицензия DVD) Драма
Size: 4.05 Gb ( 4 251 842,00 KBytes ) - DVD-5
Enabled regions: 1, 2, 3, 4, 5, 6, 7, 8
VTS_01 :
Play Length: 00:00:17
Video: PAL 4:3 (720x576) VBR
VTS_02 :
Play Length: 01:28:09+{01:28:09}+{01:28:09}
Video: PAL 4:3 (720x576) VBR
Audio:
Russian (LinearPCM, 1 ch)
* Menus Information *
VIDEO_TS Menu
Video:
PAL 4:3 (720x576) VBR
English Language Unit :
Title Menu
VTS_01 Menu
Video:
PAL 4:3 (720x576) VBR
Audio:
Not specified (LinearPCM, 2 ch)
English Language Unit :
Root Menu
VTS_02 Menu
Video:
PAL 4:3 (720x576) VBR
English Language Unit :
Root Menu
Chapter (PTT) Menu

Дополнительная информация:

Дополнительные материалы: отсутствуют
Меню: на русском языке

Скриншоты меню:

   
Скриншоты:
         
         
Время раздачи: практически ежедневно с 12 до 4 до 10 скачавших
Вне форума [Профиль] [ЛС]
Показать сообщения:    
Ответить на тему

Текущее время: Сегодня 02:04

Часовой пояс: GMT + 3



Вы не можете начинать темы
Вы не можете отвечать на сообщения
Вы не можете редактировать свои сообщения
Вы не можете удалять свои сообщения
Вы не можете голосовать в опросах
Вы не можете прикреплять файлы к сообщениям
Вы не можете скачивать файлы