Сегодня идет свободное скачивание без начисления Download

Добряки (1979) DVD5

Ответить на тему
 
Автор
Сообщение

UndegraundMen ®

Стаж: 5 лет 7 месяцев

Сообщений: 25860

Торрент-статистика

Пост 13-Фев-2013 09:13

[Цитировать]

-Добряки (1979) DVD5- Русское название: Добряки
Год выпуска: 1979
Жанр: Драма
Описание фильма:
Гордей Кабачков, профессиональный аферист, решил сделать карьеру в науке и весьма преуспел. Обосновавшись в неком Институте античной культуры, он легко обводит вокруг пальца многочисленных «добряков» — членов ученого совета — и защищает диссертацию. После этого занять директорское кресло было для него просто «делом техники»…
Режиссер: Карен Шахназаров
Актеры: Георгий Бурков, Татьяна Васильева, Владимир Зельдин, Валентина Теличкина, Лариса Пашкова, Виктор Шарлахов
Продолжительность: 01:17:34
Субтитры: отсутствуют

Видеокодек: MPEG-2
Битрейт видео: ~5444 Кбит/сек
Размер кадра: 720 х [email protected] х 540
Качество видео: DVD5
АУДИО 1: AC3 5.1, 448 Кбит/сек, русский
АУДИО 2: AC3 1.0, 224 Кбит/сек, русский

MediaInfo:

Общее
Полное имя : F:\DOBRO\VIDEO_TS\VTS_02_2.VOB
Формат : MPEG-PS
Размер файла : 1024 Мбайт
Продолжительность : 22 м.
Общий поток : 6240 Кбит/сек
Видео
Идентификатор : 224 (0xE0)
Формат : MPEG Video
Версия формата : Version 2
Профиль формата : [email protected]
Параметр BVOP формата : Да
Параметр матрицы формата : По умолчанию
Параметры GOP формата : M=3, N=15
Продолжительность : 22 м.
Вид битрейта : Переменный
Битрейт : 5444 Кбит/сек
Номинальный битрейт : 6000 Кбит/сек
Ширина : 720 пикс.
Высота : 480 пикс.
Соотношение сторон : 4:3
Частота кадров : 29,970 кадр/сек
Стандарт вещания : NTSC
Цветовое пространство : YUV
Подвыборка цветности : 4:2:0
Битовая глубина : 8 бит
Тип развёртки : Прогрессивная
Метод сжатия : С потерями
Бит/(Пиксели*Кадры) : 0.526
Размер потока : 893 Мбайт (87%)
Аудио #1
Идентификатор : 189 (0xBD)-128 (0x80)
Формат : AC-3
Формат/Информация : Audio Coding 3
Расширение режима : CM (complete main)
Режим смешивания : DVD-Video
Продолжительность : 22 м.
Вид битрейта : Постоянный
Битрейт : 448 Кбит/сек
Каналы : 6 каналов
Расположение каналов : Front: L C R, Side: L R, LFE
Частота : 48,0 КГц
Битовая глубина : 16 бит
Метод сжатия : С потерями
Задержка видео : -257 мс.
Размер потока : 73,5 Мбайт (7%)
Аудио #2
Идентификатор : 189 (0xBD)-129 (0x81)
Формат : AC-3
Формат/Информация : Audio Coding 3
Расширение режима : CM (complete main)
Режим смешивания : DVD-Video
Продолжительность : 22 м.
Вид битрейта : Постоянный
Битрейт : 224 Кбит/сек
Каналы : 1 канал
Расположение каналов : Front: C
Частота : 48,0 КГц
Битовая глубина : 16 бит
Метод сжатия : С потерями
Задержка видео : -225 мс.
Размер потока : 36,7 Мбайт (4%)
Меню

DVDInfo:

Title: DOBRO
Size: 4.25 Gb ( 4 457 390,00 KBytes ) - DVD-5
Enabled regions: 1, 2, 3, 4, 5, 6, 7, 8
VTS_01 :
Play Length: 00:00:51
Video: NTSC 4:3 (720x480) VBR
VTS_02 :
Play Length: 01:17:34
Video: NTSC 4:3 (720x480) VBR
Audio:
Russian (Dolby AC3, 6 ch)
Russian (Dolby AC3, 1 ch)
VTS_03 :
Play Length: 00:22:19+00:00:59
Video: NTSC 4:3 (720x480) VBR
Audio:
Russian (Dolby AC3, 2 ch)
* Menus Information *
VIDEO_TS Menu
Video:
NTSC 4:3 (720x480) VBR
Auto Pan&Scan, Auto Letterboxed
Russian Language Unit :
Title Menu
VTS_01 Menu
Video:
NTSC 4:3 (720x480) VBR
Auto Pan&Scan, Auto Letterboxed
Language Unit :
Chapter (PTT) Menu
VTS_02 Menu
Video:
NTSC 4:3 (720x480) VBR
Audio:
Not specified (Dolby AC3, 6 ch)
Russian Language Unit :
Root Menu
VTS_03 Menu
Video:
NTSC 4:3 (720x480) VBR
Audio:
Not specified (Dolby AC3, 6 ch)
Russian Language Unit :
Root Menu

Дополнительная информация:

Дополнительные материалы: воспоминания о работе над фильмом, до и после реставрации, фильмографии
Меню: на русском языке

Скриншоты меню:

     
Скриншоты:
         
         
Время раздачи: практически ежедневно с 12 до 4 до 10 скачавших
Вне форума [Профиль] [ЛС]
Показать сообщения:    
Ответить на тему

Текущее время: Сегодня 14:37

Часовой пояс: GMT + 3



Вы не можете начинать темы
Вы не можете отвечать на сообщения
Вы не можете редактировать свои сообщения
Вы не можете удалять свои сообщения
Вы не можете голосовать в опросах
Вы не можете прикреплять файлы к сообщениям
Вы не можете скачивать файлы