Сегодня идет свободное скачивание без начисления Download

Москва, любовь моя (1974) DVD5

Ответить на тему
 
Автор
Сообщение

UndegraundMen ®

Стаж: 5 лет 9 месяцев

Сообщений: 25860

Торрент-статистика

Пост 13-Фев-2013 09:13

[Цитировать]

-Москва, любовь моя (1974) DVD5- Русское название: Москва, любовь моя
Год выпуска: 1974
Жанр: Драма, Мелодрама
Описание фильма:
Молодая талантливая танцовщица из Японии приглашена учиться балетному искусству в школу, при Большом театре в Москве, она добивается профессиональных успехов, к ней впервые приходит настоящая любовь. Однако счастье девушки окажется коротким — в судьбу уроженки Хиросимы вмешивается безжалостная болезнь…
Режиссер: Александр Митта
Актеры: Комаки Курихара, Олег Видов, Макото Сайто, Татьяна Голикова, Иван Дыховичный, Валентин Гафт, Алексей Варламов, Олег Ефремов, Масами Симодзе, Любовь Соколова
Продолжительность: 01:29:23
Субтитры: отсутствуют

Видеокодек: MPEG-2
Битрейт видео: ~5700 Кбит/сек
Размер кадра: 720 х [email protected] х 576
Качество видео: DVD5
Аудиокодек: AC3 2.0
Битрейт аудио: 192 Кбит/сек

MediaInfo:

Общее
Полное имя : F:\MOSKVA\VIDEO_TS\VTS_03_2.VOB
Формат : MPEG-PS
Размер файла : 1024 Мбайт
Продолжительность : 23 м.
Общий поток : 6001 Кбит/сек
Видео
Идентификатор : 224 (0xE0)
Формат : MPEG Video
Версия формата : Version 2
Профиль формата : [email protected]
Параметр BVOP формата : Да
Параметр матрицы формата : По умолчанию
Параметры GOP формата : M=3, N=15
Продолжительность : 23 м.
Вид битрейта : Постоянный
Битрейт : 5700 Кбит/сек
Ширина : 720 пикс.
Высота : 576 пикс.
Соотношение сторон : 4:3
Частота кадров : 25,000 кадр/сек
Стандарт вещания : PAL
Цветовое пространство : YUV
Подвыборка цветности : 4:2:0
Битовая глубина : 8 бит
Тип развёртки : Чересстрочная
Порядок развёртки : Нижнее поле первое
Метод сжатия : С потерями
Бит/(Пиксели*Кадры) : 0.550
Размер потока : 970 Мбайт (95%)
Аудио
Идентификатор : 189 (0xBD)-128 (0x80)
Формат : AC-3
Формат/Информация : Audio Coding 3
Расширение режима : CM (complete main)
Режим смешивания : DVD-Video
Продолжительность : 23 м.
Вид битрейта : Постоянный
Битрейт : 192 Кбит/сек
Каналы : 2 канала
Расположение каналов : Front: L R
Частота : 48,0 КГц
Битовая глубина : 16 бит
Метод сжатия : С потерями
Задержка видео : -712 мс.
Размер потока : 32,8 Мбайт (3%)
Меню

DVDInfo:

Title: MOSKVA
Size: 4.21 Gb ( 4 416 226,00 KBytes ) - DVD-5
Enabled regions: 1, 2, 3, 4, 5, 6, 7, 8
VTS_01 :
Play Length: 00:00:28
Video: PAL 4:3 (720x576) VBR
VTS_02 :
Play Length: 00:07:49+{00:07:49}+{00:07:49}
Video: PAL 16:9 (720x576) VBR, Auto Letterboxed
Audio:
Russian (Dolby AC3, 2 ch)
VTS_03 :
Play Length: 01:29:23+{01:29:23}+{01:29:23}
Video: PAL 4:3 (720x576) VBR
Audio:
Russian (Dolby AC3, 2 ch)
* Menus Information *
VIDEO_TS Menu
Video:
PAL 4:3 (720x576) VBR
English Language Unit :
Title Menu
VTS_01 Menu
Video:
PAL 4:3 (720x576) VBR
Audio:
Not specified (Dolby AC3, 2 ch)
English Language Unit :
Root Menu
VTS_02 Menu
Video:
PAL 4:3 (720x576) VBR
English Language Unit :
Root Menu
VTS_03 Menu
Video:
PAL 4:3 (720x576) VBR
English Language Unit :
Root Menu

Дополнительная информация:

Дополнительные материалы: отсутствуют
Меню: на русском языке

Скриншоты меню:

 
Скриншоты:
         
         
Время раздачи: практически ежедневно с 12 до 4 до 10 скачавших
Вне форума [Профиль] [ЛС]
Похожие темы
Форум Тема Автор Торрент Отв. Посл. сообщение
./templates/default/images/folder_dl.gif Справочные системы ЕГТС - Лето 2012, Версия 83.0 Professional (г. Москва и Московская область) [Rus] XP1971
1 | 0

0 | 9334

29

2017-04-02 14:21
XP1971 Последнее
Показать сообщения:    
Ответить на тему

Текущее время: Сегодня 14:58

Часовой пояс: GMT + 3



Вы не можете начинать темы
Вы не можете отвечать на сообщения
Вы не можете редактировать свои сообщения
Вы не можете удалять свои сообщения
Вы не можете голосовать в опросах
Вы не можете прикреплять файлы к сообщениям
Вы не можете скачивать файлы