Сегодня идет свободное скачивание без начисления Download

Белый взрыв (1971) DVD5

Ответить на тему
 
Автор
Сообщение

UndegraundMen ®

Стаж: 5 лет 9 месяцев

Сообщений: 25860

Торрент-статистика

Пост 13-Фев-2013 09:13

[Цитировать]

-Белый взрыв (1971) DVD5- Русское название: Белый взрыв
Год выпуска: 1971
Жанр: Боевик, Военный
Описание фильма:
О солдатах-альпинистах Великой Отечественной войны. Об их подвиге. Они отдали свои жизни ради спасения беззащитных детей и женщин и обеспечили успех нашим войскам, сражавшимся с немецко-фашистскими захватчиками в горах Кавказа. Это был единственный путь через хребет, по которому шли беженцы и раненые.
Снайперы из немецкой дивизии «Эдельвейс» захватили важную позицию возле перевала. Лейтенант Артем предлагает командиру полка подняться наверх и подорвать шапку снега, чтобы лавина снега смела фашистов. Шесть альпинистов, среди них Ашот, который родился в этих горах, добрались до снежного плато, но их увидел вражеский самолет. Чтобы спасти Веру, погиб Ашот, но дорога была проложена.
Режиссер: Станислав Говорухин
Актеры: Сергей Никоненко, Людмила Гурченко, Анатолий Игнатьев, Армен Джигарханян, Федор Одиноков, Леван Пилпани, Бухути Закариадзе, Степан Крылов, Владимир Высоцкий, Николай Федорцев, Н.Хаджиева, В.Литвинов, А.Иванов, М.Никогосьянц, Н.Иванов, В.Козелов
Продолжительность: 01:10:50
Субтитры: отсутствуют

Видеокодек: MPEG-2
Битрейт видео: ~7000 Кбит/сек
Размер кадра: 720 х [email protected] х 576
Качество видео: DVD5
Аудиокодек: AC3 2.0
Битрейт аудио: 192 Кбит/сек

MediaInfo:

Общее
Полное имя : F:\Lutshie_Filmy_O_Vojne__8xDVD5\Belyj_Vzryv_DVD5\VIDEO_TS\VTS_01_2.VOB
Формат : MPEG-PS
Размер файла : 1023 Мбайт
Продолжительность : 19 м.
Общий поток : 7316 Кбит/сек
Видео
Идентификатор : 224 (0xE0)
Формат : MPEG Video
Версия формата : Version 2
Профиль формата : [email protected]
Параметр BVOP формата : Нет
Параметр матрицы формата : По умолчанию
Параметры GOP формата : M=1, N=15
Продолжительность : 19 м.
Вид битрейта : Постоянный
Битрейт : 7000 Кбит/сек
Ширина : 720 пикс.
Высота : 576 пикс.
Соотношение сторон : 4:3
Частота кадров : 25,000 кадр/сек
Стандарт вещания : PAL
Цветовое пространство : YUV
Подвыборка цветности : 4:2:0
Битовая глубина : 8 бит
Тип развёртки : Чересстрочная
Порядок развёртки : Верхнее поле первое
Метод сжатия : С потерями
Бит/(Пиксели*Кадры) : 0.675
Размер потока : 976 Мбайт (95%)
Аудио
Идентификатор : 189 (0xBD)-128 (0x80)
Формат : AC-3
Формат/Информация : Audio Coding 3
Расширение режима : CM (complete main)
Режим смешивания : DVD-Video
Продолжительность : 19 м.
Вид битрейта : Постоянный
Битрейт : 192 Кбит/сек
Каналы : 2 канала
Расположение каналов : Front: L R
Частота : 48,0 КГц
Битовая глубина : 16 бит
Метод сжатия : С потерями
Задержка видео : -96 мс.
Размер потока : 26,9 Мбайт (3%)
Меню

DVDInfo:

Title: Belyj_Vzryv_DVD5
Size: 3.65 Gb ( 3 822 734,00 KBytes ) - DVD-5
Enabled regions: 1, 2, 3, 4, 5, 6, 7, 8
VTS_01 :
Play Length: 01:10:50
Video: PAL 4:3 (720x576) VBR
Audio:
Russian (Dolby AC3, 2 ch)
* Menus Information *
VIDEO_TS Menu
Video:
PAL 4:3 (720x576) VBR
Audio:
Not specified (Dolby AC3, 5 ch)
Russian Language Unit :
Title Menu
VTS_01 Menu
Video:
PAL 4:3 (720x576) VBR
Audio:
Not specified (Dolby AC3, 2 ch)
Russian Language Unit :
Root Menu
Chapter (PTT) Menu

Дополнительная информация:

Дополнительные материалы: фильмографии
Меню: на русском языке

Скриншоты меню:

     
Скриншоты:
         
         
Время раздачи: практически ежедневно с 12 до 4 до 10 скачавшихВсе раздачи Белый взрыв на NNM-CLUB
Вне форума [Профиль] [ЛС]
Показать сообщения:    
Ответить на тему

Текущее время: Сегодня 19:26

Часовой пояс: GMT + 3



Вы не можете начинать темы
Вы не можете отвечать на сообщения
Вы не можете редактировать свои сообщения
Вы не можете удалять свои сообщения
Вы не можете голосовать в опросах
Вы не можете прикреплять файлы к сообщениям
Вы не можете скачивать файлы