Сегодня идет свободное скачивание без начисления Download

Уходя-уходи (1978) DVD5

Ответить на тему
 
Автор
Сообщение

UndegraundMen ®

Стаж: 5 лет 7 месяцев

Сообщений: 25860

Торрент-статистика

Пост 13-Фев-2013 07:38

[Цитировать]

-Уходя-уходи (1978) DVD5- Русское название: Уходя-уходи
Год выпуска: 1978
Жанр: Комедия
Описание фильма:
Незаметный, скромный бухгалтер Сулин часто попадает в полусмешные-полугрустные ситуации — часто робеет, боится идти наперекор хоть кому-то. Пока однажды случай не помог ему вспомнить, что и он был когда-то решительным и отважным.
Режиссер: Виктор Трегубович
Актеры: Виктор Павлов, Людмила Гурченко, Марина Трегубович, Николай Рыбников, Наталья Андрейченко, Наталья Гундарева, Олег Кононов, Федор Одиноков, Надежда Вихрова, Николай Сытин, Наталья Дмитриева, Владимир Пожидаев, Елена Мельникова, Елена Павловская
Продолжительность: 01:25:48
Субтитры: отсутствуют

Видеокодек: MPEG-2
Битрейт видео: ~6788 Кбит/сек
Размер кадра: 720 х [email protected] х 576
Качество видео: DVD5
Аудиокодек: AC3 2.0
Битрейт аудио: 192 Кбит/сек

MediaInfo:

Общее
Полное имя : F:\уходя-уходи\VIDEO_TS\VTS_01_3.VOB
Формат : MPEG-PS
Размер файла : 1024 Мбайт
Продолжительность : 20 м.
Общий поток : 7121 Кбит/сек
Видео
Идентификатор : 224 (0xE0)
Формат : MPEG Video
Версия формата : Version 2
Профиль формата : [email protected]
Параметр BVOP формата : Да
Параметр матрицы формата : По умолчанию
Параметры GOP формата : M=3, N=15
Продолжительность : 20 м.
Вид битрейта : Переменный
Битрейт : 6788 Кбит/сек
Номинальный битрейт : 9800 Кбит/сек
Ширина : 720 пикс.
Высота : 576 пикс.
Соотношение сторон : 4:3
Частота кадров : 25,000 кадр/сек
Стандарт вещания : PAL
Цветовое пространство : YUV
Подвыборка цветности : 4:2:0
Битовая глубина : 8 бит
Тип развёртки : Чересстрочная
Порядок развёртки : Верхнее поле первое
Метод сжатия : С потерями
Бит/(Пиксели*Кадры) : 0.655
Размер потока : 976 Мбайт (95%)
Аудио
Идентификатор : 189 (0xBD)-128 (0x80)
Формат : AC-3
Формат/Информация : Audio Coding 3
Расширение режима : CM (complete main)
Режим смешивания : DVD-Video
Продолжительность : 20 м.
Вид битрейта : Постоянный
Битрейт : 192 Кбит/сек
Каналы : 2 канала
Расположение каналов : Front: L R
Частота : 48,0 КГц
Битовая глубина : 16 бит
Метод сжатия : С потерями
Задержка видео : -224 мс.
Размер потока : 27,6 Мбайт (3%)
Меню

DVDInfo:

Title: уходя-уходи
Size: 4.28 Gb ( 4 492 348,00 KBytes ) - DVD-5
Enabled regions: 1, 2, 3, 4, 5, 6, 7, 8
VTS_01 :
Play Length: 01:25:48
Video: PAL 4:3 (720x576) VBR
Audio:
Russian (Dolby AC3, 2 ch)
* Menus Information *
VIDEO_TS Menu
Video:
PAL 4:3 (720x576) VBR
Audio:
Not specified (Dolby AC3, 2 ch)
Russian Language Unit :
Title Menu
VTS_01 Menu
Video:
PAL 4:3 (720x576) VBR
Audio:
Not specified (Dolby AC3, 2 ch)
Russian Language Unit :
Root Menu

Дополнительная информация:

Дополнительные материалы: отсутствуют
Меню: на русском языке

Скриншоты меню:

   
Скриншоты:
           
Вне форума [Профиль] [ЛС]
Показать сообщения:    
Ответить на тему

Текущее время: Сегодня 14:13

Часовой пояс: GMT + 3



Вы не можете начинать темы
Вы не можете отвечать на сообщения
Вы не можете редактировать свои сообщения
Вы не можете удалять свои сообщения
Вы не можете голосовать в опросах
Вы не можете прикреплять файлы к сообщениям
Вы не можете скачивать файлы