Today is a free download without charge Download

Ночные ласточки [8 серий из 8] (2012) SATRip

Reply to topic
 
Author
Message

UndegraundMen ®

Longevity: 8 years 9 months

Posts: 25145

Торрент-статистика

Post 13-Feb-2013 08:56

[Quote]

-Ночные ласточки [8 серий из 8] (2012) SATRip- Русское название: Ночные ласточки / Ночные ведьмы
Производство: Россия
Год выпуска: 2012
Жанр: Боевик, Мелодрама
Перевод: Не требуется (Русский)

Дата российской премьеры: 28 января 2013
Режиссер: Михаил Кабанов
Актеры: Олеся Фаттахова, Екатерина Олькина, Татьяна Арнтгольц, Елизавета Нилова, Мария Пирогова, Дмитрий Мазуров, Олег Гераськин, Владимир Капустин, Александр Новик, Константин Спасский, Наталья Людскова, Анатолий Завьялов, Алексей Медведев, Максим Студеновский, Евгения Бурдихина, Лариса Маркина, Константин Шелягин, Дмитрий Лавров, Елисей Тарасенко, Надежда Евтехова, Денис Никифоров, Игорь Савочкин, Елена Куликова, Михаил Евланов, Евгений Ганелин, Анатолий Пашинин, Игорь Теплов, Александра Мареева, Юлия Ковалева, Виктор Хориняк, Виктор Либеров, Константин Демидов
Описание фильма:
Сообщение о войне разносилось с огромной скоростью. Эта страшная весть не оставляла равнодушными никого. Мужчины уходили на фронт тысячами, но враг очень быстро наступал и с каждым днём оккупировал всё больше и больше земли нашей родины. На плечи женщин легла непосильная ноша - это не только работа в госпиталях и фабриках, а и на заводах у тяжёлых станков, также во всем помогали и дети. Вначале октября 1941 года был подписан Сталиным приказ о сформировании женских авиационных полков. Мужественные девушки наравне с мужчинами наносили сокрушительные удары по врагу. не жалея сил, падая с ног то усталости на ночных бомбардировщиках "ПО-2" взлетая по первому приказу, они разрушали переправы и оборонительные сооружения, уничтожали технику, доставляли данные о скоплении фашистских войск. Порой женщины хитростью и смекалкой помогали в тяжелых ситуациях. Фашисты стали называть летчиц "Ночными ласточками", а мужчины боевые товарищи испытывали гордость и уважение за настоящих русских женщин. 46-й Гвардейский бомбардировочный Таманский полк прошел боевой путь от Сальских степей и Дона до фашистской Германии. Полк совершил 24 тысячи боевых вылетов, в нем было 25 женщин Героев Советского Союза, многие посмертно.
Продолжительность: 8 х ~ 00:49:33 серия
Качество видео: SATRip
Видеокодек: DivX 5
Битрейт видео: ~1602 Kbit/s
Размер кадра: 704 х 400
Аудиокодек: MP3, 2.0
Битрейт аудио: 128 Kbit/s

MediaInfo

Общее
Полное имя : D:\Торренты\ФИЛЬМЫ торента\Ночные ласточки.2012.SATRip\Ночные ласточки.01.avi
Формат : AVI
Формат/Информация : Audio Video Interleave
Размер файла : 618 Мбайт
Продолжительность : 49 м.
Общий поток : 1743 Кбит/сек
Библиотека кодирования : Boilsoft AVI tool build 1/release
Видео
Идентификатор : 0
Формат : MPEG-4 Visual
Профиль формата : [email protected]
Параметр BVOP формата : Нет
Параметр QPel формата : Нет
Параметр GMC формата : Без точки перехода
Параметр матрицы формата : Default (H.263)
Идентификатор кодека : DX50
Идентификатор кодека/Подсказка : DivX 5
Продолжительность : 49 м.
Битрейт : 1602 Кбит/сек
Ширина : 704 пикс.
Высота : 400 пикс.
Соотношение сторон : 16:9
Частота кадров : 25,000 кадр/сек
Цветовое пространство : YUV
Подвыборка цветности : 4:2:0
Битовая глубина : 8 бит
Тип развёртки : Прогрессивная
Метод сжатия : С потерями
Бит/(Пиксели*Кадры) : 0.228
Размер потока : 568 Мбайт (92%)
Библиотека кодирования : XviD 1.2.1 (UTC 2008-12-04)
Аудио
Идентификатор : 1
Формат : MPEG Audio
Версия формата : Version 1
Профиль формата : Layer 3
Режим : Joint stereo
Расширение режима : MS Stereo
Идентификатор кодека : 55
Идентификатор кодека/Подсказка : MP3
Продолжительность : 49 м.
Вид битрейта : Постоянный
Битрейт : 128 Кбит/сек
Каналы : 2 канала
Частота : 48,0 КГц
Метод сжатия : С потерями
Размер потока : 45,4 Мбайт (7%)
Выравнивание : Соединение по промежуткам
Продолжительность промежутка : 24 мс. (0,60 видеокадр)
Время предзагрузки промежутка : 504 ms
Библиотека кодирования : LAME3.98.2
Скриншоты:
         
         Время раздачи: 24/7 по возможности [url=/forum/viewtopic.php?t=612089]Ночные ласточки (1-8 серии из 8) (2012) DVB[/url]
Other forum [Profile] [PM]
Display posts from previous:    
Reply to topic

The time now is: Today 00:15

All times are GMT + 3 Hours



You cannot post new topics in this forum
You cannot reply to topics in this forum
You cannot edit your posts in this forum
You cannot delete your posts in this forum
You cannot vote in polls in this forum
You cannot attach files in this forum
You cannot download files in this forum