Today is a free download without charge Download

Гром [8 серий из 8] (2013) SATRip

Reply to topic
 
Author
Message

UndegraundMen ®

Longevity: 8 years 9 months

Posts: 25145

Торрент-статистика

Post 13-Feb-2013 08:56

[Quote]

-Гром [8 серий из 8] (2013) SATRip- Русское название: Гром
Выпущено: Россия, Кинокомпания "Кобура"
Год выпуска: 2013
Жанр: Криминал, Детектив
Перевод: Не требуется (Русский)

Режиссер: Юрий Кузьменко
Актеры: Ирина Баринова, Антон Макарский, Андрей Егоров, Дарья Чаруша, Екатерина Маликова, Егор Баринов, Вадим Андреев, Владислав Ветров, Елена Мольченко (Фатюшина), Евгений Березовский, Иван Николаев, Сергей Шеховцов, Алексей Варущенко, Роман Матюнин, Дмитрий Собачкин, Юлия Тельпухова
Описание фильма:
Много сериалов было снято про милицию, полицию, розыскных собак помогающих в раскрытии преступлений и т.п... Кинокомпания "Кобура" представляет нашему вниманию детективный сериал "Гром".
В сериале пойдёт речь о капитане Прохорове и его верном, преданном коне по кличке Гром. Капитан не проходит мимо несправедливости, он не может терпеть лож, придет на помощь в трудную минуту. Его верный напарник "Гром" обладает высоким чутьем, он очень сообразителен и предан своему хозяину, Гром неоднократно помогал Прохорову распутать сложное дело, а при необходимости даже спасал жизнь хозяина. Прохоров и Гром как единое целое, они понимают друг друга лишь с одного взгляда и не когда не подведут в трудную минуту. Им удается разоблачить людей, которые похитили иконы, раскрывают дело с киднепингом, отправляют за решетку преступников и просто, от чистого сердца, помогают людям.
Продолжительность: 8 х ~ 00:43:26 серия
Качество видео: SATRip
Видеокодек: DivX 5
Битрейт видео: ~1599 Kbit/s
Размер кадра: 704 х 400
Аудиокодек: MP3, 2.0
Битрейт аудио: 128 Kbit/s

MediaInfo

Общее
Полное имя : D:\Торренты\ФИЛЬМЫ торента\Гром 2013.SATRip\Гром.01.avi
Формат : AVI
Формат/Информация : Audio Video Interleave
Размер файла : 536 Мбайт
Продолжительность : 43 м.
Общий поток : 1740 Кбит/сек
Библиотека кодирования : Boilsoft AVI tool build 1/release
Видео
Идентификатор : 0
Формат : MPEG-4 Visual
Профиль формата : [email protected]
Параметр BVOP формата : Нет
Параметр QPel формата : Нет
Параметр GMC формата : Без точки перехода
Параметр матрицы формата : Default (H.263)
Идентификатор кодека : DX50
Идентификатор кодека/Подсказка : DivX 5
Продолжительность : 43 м.
Битрейт : 1599 Кбит/сек
Ширина : 704 пикс.
Высота : 400 пикс.
Соотношение сторон : 16:9
Частота кадров : 25,000 кадр/сек
Цветовое пространство : YUV
Подвыборка цветности : 4:2:0
Битовая глубина : 8 бит
Тип развёртки : Прогрессивная
Метод сжатия : С потерями
Бит/(Пиксели*Кадры) : 0.227
Размер потока : 493 Мбайт (92%)
Библиотека кодирования : XviD 1.2.1 (UTC 2008-12-04)
Аудио
Идентификатор : 1
Формат : MPEG Audio
Версия формата : Version 1
Профиль формата : Layer 3
Режим : Joint stereo
Расширение режима : MS Stereo
Идентификатор кодека : 55
Идентификатор кодека/Подсказка : MP3
Продолжительность : 43 м.
Вид битрейта : Постоянный
Битрейт : 128 Кбит/сек
Каналы : 2 канала
Частота : 48,0 КГц
Метод сжатия : С потерями
Размер потока : 39,4 Мбайт (7%)
Выравнивание : Соединение по промежуткам
Продолжительность промежутка : 24 мс. (0,60 видеокадр)
Время предзагрузки промежутка : 504 ms
Библиотека кодирования : LAME3.98.2
Скриншоты:
           
Время раздачи: 24/7 по возможности [url=/forum/viewtopic.php?t=612107]Гром (1-8 серии из 8) (2012) DVB[/url]
Other forum [Profile] [PM]
Display posts from previous:    
Reply to topic

The time now is: Today 05:46

All times are GMT + 3 Hours



You cannot post new topics in this forum
You cannot reply to topics in this forum
You cannot edit your posts in this forum
You cannot delete your posts in this forum
You cannot vote in polls in this forum
You cannot attach files in this forum
You cannot download files in this forum