Today is a free download without charge Download

Петрович (2012) SATRip [серии 1-24 из 24] (Обновляемая)

Reply to topic
 
Author
Message

UndegraundMen ®

Longevity: 8 years 9 months

Posts: 25145

Торрент-статистика

Post 13-Feb-2013 08:56

[Quote]

-Петрович (2012) SATRip [серии 1-24 из 24] (Обновляемая)- Русское название: Петрович
Год выпуска: 2012
Жанр: Детектив, Криминал

Дата российской премьеры: 21.01.2013
Режиссер: Геннадий Байсак, Георгий Гаврилов
Актеры: Алексей Петренко, Илья Шакунов, Александр Петров (IX), Марина Голуб, Евгений Щецов, Сергей Цепов, Александр Воробьёв (II), Вадим Чибисов, Александр Ильин, Иван Николаев, Олег Кныш, Тимур Ефременков, Людмила Соловьёва, Евгений Ермаков, Николай Токарев, Олег Челышев, Владислав Топалов, Инга Илюшина, Лолита Милявская, Андрей Барило, Андрей Демченко, Наталья Гуслистая, Алиса Филинская, Игорь Литовкин (II), Александра Прокофьева, Виктория Тарасова, Григорий Иванец, Борис Полунин, Сергей Терещенко, Юрий Вотяков, Анатолий Отраднов, Алексей Краснопольский (II), Юрий Митрофанов, Ирэна Дубровская (Кокрятская), Григорий Рыжиков, Алексей Мясников, Сергей Гурьев, Иван Рыжиков, Эдуард Рябинин, Евгений Крылов, Наталия Колодяжная, Лариса Халафова, Владимир Виноградов, Евгений Атарик, Александр Галевский, Елизавета Гамбург, Александр Павлов, Александр Вдовин, Сергей Мурзин, Владимир Горюшин, Константин Соловьёв, Сергей Степанченко, Елена Кравченко, Ксения Громова, Нина Лощинина, Николай Юшкевич, Василий Шлыков, Егор Клейменов, Павел Климов, Александра Скачкова, Анатолий Калмыков, Владислав Сыч, Татьяна Исаева, Виктор Соловьёв (II), Сергей Нескороденко, Борис Шувалов, Александр Шатохин, Светлана Стрелкова, Ирина Померанцева, Мария Киреева
Описание фильма:
«От сумы да от тюрьмы не зарекайся» – так гласит известная пословица.
И действительно, никто не застрахован от тюрьмы, в том числе и безвинный. Не помогут ни деньги, ни общественное мнение, ни власть. Именно тогда последней надеждой становится адвокат, его грамотная речь и знание законов. Главный герой нашей истории – государственный советник юстиции 3-го класса, бывший сотрудник прокуратуры Стрельцов Трофим Петрович. Петрович человек жесткий, с обостренным чувством справедливости. По выходе на пенсию Петрович начинает преподавать на юридическом факультете и… открывает в своей квартире адвокатскую контору. Только, защищая своего подопечного, он продолжает заниматься тем же – поиском преступников. Ведь Петрович всегда считал, что вор должен сидеть в тюрьме.
Продолжительность: 00:47:00 серия
Качество видео: SATRip

Видеокодек: Xvid
Битрейт видео: ~1494 kbps
Размер кадра: 720x400
Аудиокодек: MP3
Битрейт аудио: 128 kbps

Mediainfo

Общее
Полное имя : G:\NNM-Club\Петрович (2012)\Petrovich.(01).2012.SATRip.avi
Формат : AVI
Формат/Информация : Audio Video Interleave
Размер файла : 553 Мбайт
Продолжительность : 47 м.
Общий поток : 1632 Кбит/сек
Программа кодирования : VirtualDubMod 1.5.10.2 (build 2540/release)
Библиотека кодирования : VirtualDub build 32507/release
Видео
Идентификатор : 0
Формат : MPEG-4 Visual
Профиль формата : Advanced [email protected]
Параметр BVOP формата : 2
Параметр QPel формата : Нет
Параметр GMC формата : Без точки перехода
Параметр матрицы формата : Default (MPEG)
Идентификатор кодека : XVID
Идентификатор кодека/Подсказка : XviD
Продолжительность : 47 м.
Битрейт : 1495 Кбит/сек
Ширина : 720 пикселей
Высота : 400 пикселей
Соотношение сторон : 16:9
Частота кадров : 25,000 кадров/сек
Цветовое пространство : YUV
Субдискретизация насыщенности : 4:2:0
Битовая глубина : 8 бит
Тип развёртки : Прогрессивная
Метод сжатия : С потерями
Бит/(Пиксели*Кадры) : 0.208
Размер потока : 506 Мбайт (92%)
Библиотека кодирования : XviD 64
Аудио
Идентификатор : 1
Формат : MPEG Audio
Версия формата : Version 1
Профиль формата : Layer 3
Режим : Joint stereo
Расширение режима : MS Stereo
Идентификатор кодека : 55
Идентификатор кодека/Подсказка : MP3
Продолжительность : 47 м.
Вид битрейта : Постоянный
Битрейт : 128 Кбит/сек
Каналы : 2 канала
Частота : 48,0 КГц
Метод сжатия : С потерями
Размер потока : 43,4 Мбайт (8%)
Выравнивание : Соединение по промежуткам
Продолжительность промежутка : 40 мс. (1,00 видеокадр)
Время предзагрузки промежутка : 504 мс.
Библиотека кодирования : LAME3.90.3
Rip by:
Скриншоты:


[url=/forum/viewtopic.php?t=611577]Петрович (2012) DVB [/url]Время раздачи: до 10 скачавших
Other forum [Profile] [PM]
Similar theme
Forum Topic Author Torrent Replies Last Post
./templates/default/images/folder_dl.gif Сатира, Юмор Евгений Петросян и Елена Степаненко | Страсти-мордасти (Часть 1) (2005) [MP3] NarDok
0 | 1

0 | 1291

1

2015-09-18 17:42
NarDok Latest
./templates/default/images/folder_dl.gif Обучающая и развивающая литература, учебники А.В.Петрова, И.А.Орлова | Полный курс английского языка (2018) [PDF] }{@R0N
1 | 0

0 | 1034

0

2019-03-22 23:05
}{@R0N Latest
Display posts from previous:    
Reply to topic

The time now is: Today 18:24

All times are GMT + 3 Hours



You cannot post new topics in this forum
You cannot reply to topics in this forum
You cannot edit your posts in this forum
You cannot delete your posts in this forum
You cannot vote in polls in this forum
You cannot attach files in this forum
You cannot download files in this forum