Today is a free download without charge Download

Мент в законе-6 [24 серии из 24] (2013) SATRip

Reply to topic
 
Author
Message

UndegraundMen ®

Longevity: 8 years 9 months

Posts: 25145

Торрент-статистика

Post 13-Feb-2013 07:34

[Quote]

-Мент в законе-6 [24 серии из 24] (2013) SATRip- Русское название: Мент в законе-6
Производство: Россия
Год выпуска: 2013
Жанр: Детектив
Перевод: Не требуется (Русский)

Режиссер: Сергей Полянский, Евгений Сологалов
Актеры: Сергей Плотников (II), Антон Сёмкин, Михаил Бабичев, Константин Глушков, Рустам Эйвазов, Юлия Яблонская, Денис Кирис, Константин Гацалов, Даша Русакова, Роман Селецкий, Тарас Кияшко, Николай Ширяев, Александр Сергеев (IV), Кирилл Костырко, Даниил Кокин, Татьяна Косач-Брындина, Дарья Смирнова, Лада Чернова
Описание фильма:
В шестом сезоне в Битово происходит громкое экономическое преступление: заезжих бизнесменов «кинули» на 100 миллионов рублей. Дерзкого афериста разыскивают оперативники Кручи, бандиты Сафрона и сами «бизнесмены», оказавшиеся членами организованной преступной группировки. Также в этом сезоне Сафрон баллотируется в депутаты под лозунгом: «Я освобожу район Битово от преступности и от бездействия полиции». Борьба Кручи против преступности обостряется: масштабные грабежи и циничные убийства, борьба с работорговцами и квартирными аферистами, арест банды подростков из богатых семей, которые играют в карты человеческие жизни. Все это и многое другое с блеском расследуют Степан Круча и его оперативники в новом сезоне остросюжетного телесериала «Мент в законе-6
Продолжительность: 24 х ~ 00:42:09 серия
Качество видео: SATRip
Видеокодек: Xvid
Битрейт видео: ~1218 Kbit/s
Размер кадра: 704 x 384
Аудиокодек: MP3, 2.0
Битрейт аудио: 128 Kbit/s

MediaInfo

Общее
Полное имя : D:\Торренты\ФИЛЬМЫ торента\Мент в законе-6. 2013.SATRip\Мент в законе-6.01.avi
Формат : AVI
Формат/Информация : Audio Video Interleave
Профиль формата : OpenDML
Настройки формата : rec
Размер файла : 409 Мбайт
Продолжительность : 42 м.
Общий поток : 1355 Кбит/сек
Видео
Идентификатор : 0
Формат : MPEG-4 Visual
Профиль формата : Advanced [email protected]
Параметр BVOP формата : 2
Параметр QPel формата : Нет
Параметр GMC формата : Без точки перехода
Параметр матрицы формата : Default (MPEG)
Идентификатор кодека : XVID
Идентификатор кодека/Подсказка : XviD
Продолжительность : 42 м.
Битрейт : 1218 Кбит/сек
Ширина : 704 пикс.
Высота : 384 пикс.
Соотношение сторон : 16:9
Частота кадров : 25,000 кадр/сек
Цветовое пространство : YUV
Подвыборка цветности : 4:2:0
Битовая глубина : 8 бит
Тип развёртки : Прогрессивная
Метод сжатия : С потерями
Бит/(Пиксели*Кадры) : 0.180
Размер потока : 367 Мбайт (90%)
Библиотека кодирования : XviD 64
Аудио
Идентификатор : 1
Формат : MPEG Audio
Версия формата : Version 1
Профиль формата : Layer 3
Режим : Joint stereo
Расширение режима : MS Stereo
Идентификатор кодека : 55
Идентификатор кодека/Подсказка : MP3
Продолжительность : 42 м.
Вид битрейта : Постоянный
Битрейт : 128 Кбит/сек
Каналы : 2 канала
Частота : 48,0 КГц
Метод сжатия : С потерями
Размер потока : 38,6 Мбайт (9%)
Выравнивание : Соединение по промежуткам
Продолжительность промежутка : 24 мс. (0,60 видеокадр)
Время предзагрузки промежутка : 192 ms
Библиотека кодирования : LAME3.90.3
Скриншоты:
           
Время раздачи: 24/7 по возможности
Other forum [Profile] [PM]
Display posts from previous:    
Reply to topic

The time now is: Today 06:23

All times are GMT + 3 Hours



You cannot post new topics in this forum
You cannot reply to topics in this forum
You cannot edit your posts in this forum
You cannot delete your posts in this forum
You cannot vote in polls in this forum
You cannot attach files in this forum
You cannot download files in this forum