Today is a free download without charge Download

Морские дьяволы. Смерч [Серии 1-10 из 32] (2012) SATRip (Обновляемая)

Reply to topic
 
Author
Message

UndegraundMen ®

Longevity: 8 years 9 months

Posts: 25145

Торрент-статистика

Post 13-Feb-2013 07:34

[Quote]

-Морские дьяволы. Смерч [Серии 1-10 из 32] (2012) SATRip (Обновляемая)- Русское название: Морские дьяволы. Смерч
Год выпуска: 2012
Жанр: Приключения, Боевик, Криминал

Дата российской премьеры: 04.02.2013
Режиссер: Алексей Гусев, Сергей Васильев, Станислав Дремов
Актеры: Олег Чернов, Дарья Юргенс, Антон Гуляев, Владимир Ярош, Дарья Циберкина, Игорь Григорьев, Михаил Елисеев, Анна Пескова, Антон Пулит, Анатолий Журавлёв, Юрий Кузнецов, Константин Воробьёв, Виталий Кравченко, Артур Федынко, Дмитрий Быковский-Ромашов, Михаил Сидаш, Сергей Шкарбан, Юрий Батурин, Дмитрий Лебедев, Оксана Скакун, Руслан Кацагаджиев, Олег Панин, Дмитрий Кочкин, Алексей Симонов, Сергей Маркеев, Олег Малышев, Павел Миронов, Александр Большаков, Сергей Бледных, Андрей Феськов, Елена Андреева, Олег Морозов, Константин Клюквин, Юрий Елагин, Александр Петров
Описание фильма:
В целях обнаружения и предотвращения случаев возникновения угрозы государственной безопасности, при президенте и правительстве РФ создается контртеррористический центр, в его подчинении находится группа специального назначения Смерч.
Группа «Смерч» состоит из семи человек, они подготовлены к действиям в сложнейших ситуациях, в любой среде, в условиях дефицита времени и мощного противодействия. Практически все они (Батя, Багира, Кот, Бизон, Физик, Пригов) — бывшие тайфуновцы из «Морских дьяволов», перешедшие теперь на работу в КТЦ. Все, за исключением Муры, пришедшей работать уже непосредственно в Смерч. Смерч, обладающий всеми новинками вооружений и спецтехники, включает в себя бойцов спецподразделений, ученых, программистов, психологов. Сотрудники МВД, ФСБ и Министерства Обороны обязаны подчиняться указаниям этой группы.
Продолжительность: 00:45 серия
Качество видео: SATRip
Видеокодек: Xvid
Битрейт видео: ~1500 kbps
Размер кадра: 704х400
Аудиокодек: MP3
Битрейт аудио: 128 kbps

Mediainfo

Общее
Полное имя : G:\NNM-Club\Морские дьяволы. Смерч (2012) SATRip\Morskie.d'javoly.Smerch.(01).2012.SATRip.avi
Формат : AVI
Формат/Информация : Audio Video Interleave
Размер файла : 530 Мбайт
Продолжительность : 45 м.
Общий поток : 1633 Кбит/сек
Библиотека кодирования : VirtualDub build 32842/release
Видео
Идентификатор : 0
Формат : MPEG-4 Visual
Профиль формата : Advanced [email protected]
Параметр BVOP формата : 2
Параметр QPel формата : Нет
Параметр GMC формата : Без точки перехода
Параметр матрицы формата : Default (H.263)
Режим смешивания : Сжатый битовый поток
Идентификатор кодека : XVID
Идентификатор кодека/Подсказка : XviD
Продолжительность : 45 м.
Битрейт : 1495 Кбит/сек
Ширина : 704 пикселя
Высота : 400 пикселей
Соотношение сторон : 16:9
Частота кадров : 25,000 кадров/сек
Цветовое пространство : YUV
Субдискретизация насыщенности : 4:2:0
Битовая глубина : 8 бит
Тип развёртки : Прогрессивная
Метод сжатия : С потерями
Бит/(Пиксели*Кадры) : 0.212
Размер потока : 485 Мбайт (92%)
Библиотека кодирования : XviD 1.2.1 (UTC 2008-12-04)
Аудио
Идентификатор : 1
Формат : MPEG Audio
Версия формата : Version 1
Профиль формата : Layer 3
Режим : Joint stereo
Расширение режима : MS Stereo
Идентификатор кодека : 55
Идентификатор кодека/Подсказка : MP3
Продолжительность : 45 м.
Вид битрейта : Постоянный
Битрейт : 128 Кбит/сек
Каналы : 2 канала
Частота : 48,0 КГц
Метод сжатия : С потерями
Размер потока : 41,5 Мбайт (8%)
Выравнивание : Разделение по промежуткам
Продолжительность промежутка : 40 мс. (1,00 видеокадр)
Время предзагрузки промежутка : 500 мс.
Скриншоты:

Время раздачи: до 10 скачавших
Other forum [Profile] [PM]
Display posts from previous:    
Reply to topic

The time now is: Today 17:36

All times are GMT + 3 Hours



You cannot post new topics in this forum
You cannot reply to topics in this forum
You cannot edit your posts in this forum
You cannot delete your posts in this forum
You cannot vote in polls in this forum
You cannot attach files in this forum
You cannot download files in this forum