Today is a free download without charge Download

После школы (серии 1-9 из 9) (2012) SATRip [Обновляемая]

Reply to topic
 
Author
Message

UndegraundMen ®

Longevity: 8 years 9 months

Posts: 25145

Торрент-статистика

Post 13-Feb-2013 07:34

[Quote]

- После школы (2012) SATRip - Режиссер / Телекомпания: Первый канал
Русское название: После школы
Год выпуска: 2012
Жанр: Комедия
Выпущено: Россия, Эстония, "Первый канал", "The Walt Disney Company"
Описание:
Сериал «После школы» - это оригинальная история о современных подростках, их родителях и учителях, рассказанная языком новаторской режиссуры. Каждая серия повествует о жизни одного из учеников обычной школы.
Режиссёр: Андрей Болтенко, Владимир Пресняков, Олег Пресняков
В ролях: Сергей Шакуров, Ксения Раппопорт, Михаил Пореченков, Михаил Трухин, Александр Гордон, Илья Авербух, Федор Бондарчук, Антон Привольнов, Ирина Рахманова, Дина Корзун, Ирина Гринева, Олег Скрипка
Продолжительность: Каждая серия х ~ 01:00:00
Видеокодек: DivX
Битрейт видео: ~1598 kb/s
Размер кадра: 720 x 464 / 720 х 400
Качество видео: SATRip
Аудиокодек: MP3, 2ch.
Битрейт аудио: 128 kb/s

MediaInfo

Формат : AVI
Формат/Информация : Audio Video Interleave
Размер файла : 706 Мбайт
Продолжительность : 56 м.
Общий поток : 1743 Кбит/сек
Видео
Идентификатор : 0
Формат : MPEG-4 Visual
Профиль формата : [email protected]
Параметр BVOP формата : Нет
Параметр QPel формата : Нет
Параметр GMC формата : Без точки перехода
Параметр матрицы формата : Default (H.263)
Идентификатор кодека : DX50
Идентификатор кодека/Подсказка : DivX 5
Продолжительность : 56 м.
Битрейт : 1598 Кбит/сек
Ширина : 720 пикселей
Высота : 464 пикселя
Соотношение сторон : 1,552
Частота кадров : 25,000 кадров/сек
Цветовое пространство : YUV
Субдискретизация насыщенности : 4:2:0
Битовая глубина : 8 бит
Тип развёртки : Прогрессивная
Метод сжатия : С потерями
Бит/(Пиксели*Кадры) : 0.191
Размер потока : 647 Мбайт (92%)
Библиотека кодирования : XviD 1.2.1 (UTC 2008-12-04)
Аудио
Идентификатор : 1
Формат : MPEG Audio
Версия формата : Version 1
Профиль формата : Layer 3
Режим : Joint stereo
Расширение режима : MS Stereo
Идентификатор кодека : 55
Идентификатор кодека/Подсказка : MP3
Продолжительность : 56 м.
Вид битрейта : Постоянный
Битрейт : 128 Кбит/сек
Каналы : 2 канала
Частота : 48,0 КГц
Метод сжатия : С потерями
Размер потока : 51,9 Мбайт (7%)
Выравнивание : Соединение по промежуткам
Продолжительность промежутка : 24 мс. (0,60 видеокадр)
Библиотека кодирования : LAME3.98.2
Скриншоты:                    Время раздачи: 24/7. До первых 5 скачавших.
Other forum [Profile] [PM]
Display posts from previous:    
Reply to topic

The time now is: Today 16:56

All times are GMT + 3 Hours



You cannot post new topics in this forum
You cannot reply to topics in this forum
You cannot edit your posts in this forum
You cannot delete your posts in this forum
You cannot vote in polls in this forum
You cannot attach files in this forum
You cannot download files in this forum