Today is a free download without charge Download

Одиссея сыщика Гурова [1-16 серия из 24] (2012) SATRip [Обновляемая]

Reply to topic
 
Author
Message

UndegraundMen ®

Longevity: 8 years 9 months

Posts: 25145

Торрент-статистика

Post 13-Feb-2013 07:34

[Quote]

-Одиссея сыщика Гурова [1-16 серия из 24] (2012) SATRip [Обновляемая]- Русское название: Одиссея сыщика Гурова
Производство: Россия
Год выпуска: 2012
Жанр: Криминал, Детектив
Перевод: Не требуется (Русский)

Режиссер: Федор Петрухин
Актеры: Сергей Маховиков, Борис Покровский, Алиса Признякова, Евгения Чиркова, Владимир Стержаков, Игорь Иванов (VII), Александр Нехороших, Андрей Зайцев (II), Роман Фролов, Дмитрий Толкачев, Екатерина Архарова, Ольга Родина, Владимир Колида, Михаил Асанкин, Константин Силаков, Олег Флеер, Виталий Шевелев, Владимир Гараев
Описание фильма:
Продолжение детективного сериала, снятого по произведениям Николая Леонова. Гроза преступного мира возвращается!Тот самый Гуров — немногословный, невозмутимый, непреклонный, лучший сыщик МУРа — снова идет в бой, и покой ему только снится!
У него нет дел и безвыходных ситуаций. Он может вывести на чистую воду любого бандита. Его конек — это его интуиция и он доверяет ей всегда, не подвергая сомнению, он может опередить противника не несколько шагов вперед. С ним работает команда верных единомышленников, а бессменный начальник — генерал Орлов — по-прежнему готов подставить плечо своему верному товарищу!В новых сериях Льву Гурову предстоит раскрыть дело «оборотней в погонах», разобраться в обстоятельствах гибели директора телеканала, найти убийцу в армии врагов известного бизнесмена, разыскать похитителей олигарха…Расследования, погони, перестрелки, еще больше запутанных и сложных дел.
Продолжительность: 16 х ~ 00:43:03 серия
Качество видео: SATRip
Видеокодек: Xvid
Битрейт видео: ~1499 Kbit/s
Размер кадра: 720 х 400
Аудиокодек: MP3, 2.0
Битрейт аудио: 128 Kbit/sВнимание! Раздача ведётся путём добавления новых серий

Внимание! Раздача ведётся путём добавления новых серий. Описание обновления торрента.

Внимание! Раздача ведётся путём добавления новых серий; при каждом добавлении создётся новый торрент. Чтобы начать докачку новой серии, пользователям необходимо сделать следующее:
(1) остановить скачивание,
(2) удалить старый торрент у себя из клиента (старые серии удалять не надо),
(3) скачать новый торрент и запустить его у себя в клиенте вместо старого, при этом указать клиенту путь в старую папку куда и должно происходить скачивание новых серий.
Ваш клиент при этом должен произвести хеширование (проверку) старой папки (если не производит сам - помогите ему сделать это), и будет докачивать только те серии которых у вас ещё нет. Старые серии при этом не удаляются, а продолжают раздаваться!
Eсли вы уже удалили старые серии, то предотвратить повторную закачку старых серий можно, отжав галочку в соответсвующих местах при запуске нового торрента. По возможности, желательно не удалять старые серии как можно дольше чтобы релизёр не столько продолжал раздавать старые серии, а смог сконцентрироваться на новых.

MediaInfo

Общее
Полное имя : D:\Торренты\ФИЛЬМЫ торента\Одиссея сыщика Гурова.2013\Одиссея сыщика Гурова.04.avi
Формат : AVI
Формат/Информация : Audio Video Interleave
Размер файла : 504 Мбайт
Продолжительность : 43 м.
Общий поток : 1637 Кбит/сек
Программа кодирования : VirtualDubMod 1.5.10.2 (build 2540/release)
Библиотека кодирования : VirtualDub build 32661/release
Видео
Идентификатор : 0
Формат : MPEG-4 Visual
Профиль формата : Advanced [email protected]
Параметр BVOP формата : 2
Параметр QPel формата : Нет
Параметр GMC формата : Без точки перехода
Параметр матрицы формата : Default (MPEG)
Идентификатор кодека : XVID
Идентификатор кодека/Подсказка : XviD
Продолжительность : 43 м.
Битрейт : 1499 Кбит/сек
Ширина : 720 пикс.
Высота : 400 пикс.
Соотношение сторон : 16:9
Частота кадров : 25,000 кадр/сек
Цветовое пространство : YUV
Подвыборка цветности : 4:2:0
Битовая глубина : 8 бит
Тип развёртки : Прогрессивная
Метод сжатия : С потерями
Бит/(Пиксели*Кадры) : 0.208
Размер потока : 462 Мбайт (92%)
Библиотека кодирования : XviD 64
Аудио
Идентификатор : 1
Формат : MPEG Audio
Версия формата : Version 1
Профиль формата : Layer 3
Режим : Joint stereo
Идентификатор кодека : 55
Идентификатор кодека/Подсказка : MP3
Продолжительность : 43 м.
Вид битрейта : Постоянный
Битрейт : 128 Кбит/сек
Каналы : 2 канала
Частота : 48,0 КГц
Метод сжатия : С потерями
Размер потока : 39,4 Мбайт (8%)
Выравнивание : Соединение по промежуткам
Продолжительность промежутка : 40 мс. (1,00 видеокадр)
Время предзагрузки промежутка : 504 ms
Скриншоты:
           
Other forum [Profile] [PM]
Display posts from previous:    
Reply to topic

The time now is: Today 05:54

All times are GMT + 3 Hours



You cannot post new topics in this forum
You cannot reply to topics in this forum
You cannot edit your posts in this forum
You cannot delete your posts in this forum
You cannot vote in polls in this forum
You cannot attach files in this forum
You cannot download files in this forum