Today is a free download without charge Download

Моими глазами (Сезон 1, 1-9 серии из 20) (2013) WEBRip [Обновляемая]

Reply to topic
 
Author
Message

UndegraundMen ®

Longevity: 8 years 9 months

Posts: 25145

Торрент-статистика

Post 13-Feb-2013 07:34

[Quote]

-Моими глазами (Сезон 1, 1-9 серии из 20) (2013) WEBRip- Русское название: Моими глазами
Год выпуска: 2013
Производство: Россия, Фокус Плюс Синема
Жанр: Мистика, триллер
Режиссер: Заур Болотаев
Сценарий: Илья Куликов
Актеры: Лада Чуровская, Анастасия Стежко, Константин Быков, Татьяна Рыбинец, Лилия Разакова, Вячеслав Чепурченко, Павел Ясенок, Лидия Омутных, Ирина Денисова, Юрий Архангельский
Описание фильма:
Сериал построен по принципу складывающейся головоломки. Каждую серию мы видим глазами ее главного героя. У каждого героя своя история в рамках серии. Эти истории переплетаются между собой, опираясь на систему флешбэков и флешфорвардов. Одни и те же события зритель увидит глазами каждого персонажа, принимающего в них участие.-
Дата российской премьеры: 27 января 2013-Продолжительность: ~ 00:25:00 серия
Качество видео: WEBRip
Видеокодек: XviD
Битрейт видео: ~ 1400 Кбит/сек
Размер кадра: 720x400
Аудио: Русский, МР3, 2 ch, 128 Кбит/с

Внимание! Раздача ведётся путём добавления новых серий. Описание обновления торрента:

Внимание!
Раздача ведётся путём добавления новых серий; при каждом добавлении создётся новый торрент. Чтобы начать докачку новой серии, пользователям необходимо сделать следующее:
(1) остановить скачивание,
(2) удалить старый торрент у себя из клиента (старые серии удалять не надо),
(3) скачать новый торрент и запустить его у себя в клиенте вместо старого, при этом указать клиенту путь в старую папку куда и должно происходить скачивание новых серий.
Ваш клиент при этом должен произвести хеширование (проверку) старой папки (если не производит сам - помогите ему сделать это), и будет докачивать только те серии которых у вас ещё нет. Старые серии при этом не удаляются, а продолжают раздаваться!
Eсли вы уже удалили старые серии, то предотвратить повторную закачку старых серий можно, отжав галочку в соответсвующих местах при запуске нового торрента. По возможности, желательно не удалять старые серии как можно дольше чтобы релизёр не столько продолжал раздавать старые серии, а смог сконцентрироваться на новых.

MediaInfo

Код:
Общее
Полное имя                               : E:\Раздачи\Обновляемые\Моими Глазами\01 серия.avi
Формат                                   : AVI
Формат/Информация                        : Audio Video Interleave
Размер файла                             : 259 Мбайт
Продолжительность                        : 23 м.
Общий поток                              : 1527 Кбит/сек
Программа кодирования                    : Lavf53.4.0
Библиотека кодирования                   : VirtualDub build 29808/release
Видео
Идентификатор                            : 0
Формат                                   : MPEG-4 Visual
Профиль формата                          : [email protected]
Параметр BVOP формата                    : Нет
Параметр QPel формата                    : Нет
Параметр GMC формата                     : Без точки перехода
Параметр матрицы формата                 : Default (H.263)
Идентификатор кодека                     : XVID
Идентификатор кодека/Подсказка           : XviD
Продолжительность                        : 23 м.
Битрейт                                  : 1387 Кбит/сек
Ширина                                   : 720 пикселей
Высота                                   : 400 пикселей
Соотношение сторон                       : 16:9
Частота кадров                           : 25,000 кадров/сек
Цветовое пространство                    : YUV
Субдискретизация насыщенности            : 4:2:0
Битовая глубина                          : 8 бит
Тип развёртки                            : Прогрессивная
Метод сжатия                             : С потерями
Бит/(Пиксели*Кадры)                      : 0.193
Размер потока                            : 235 Мбайт (91%)
Библиотека кодирования                   : Lavc53.7.0
Аудио
Идентификатор                            : 1
Формат                                   : MPEG Audio
Версия формата                           : Version 1
Профиль формата                          : Layer 3
Режим                                    : Joint stereo
Идентификатор кодека                     : 55
Идентификатор кодека/Подсказка           : MP3
Продолжительность                        : 23 м.
Вид битрейта                             : Постоянный
Битрейт                                  : 128 Кбит/сек
Каналы                                   : 2 канала
Частота                                  : 44,1 КГц
Метод сжатия                             : С потерями
Размер потока                            : 21,7 Мбайт (8%)
Выравнивание                             : Соединение по промежуткам
Продолжительность промежутка             : 26  мс. (0,65 видеокадр)
Время предзагрузки промежутка            : 522  мс.
Библиотека кодирования                   : LAME3.97
Скриншоты:
         
         -Время раздачи: 9.00 - 23.00 (по мере возможности...)
Other forum [Profile] [PM]
Display posts from previous:    
Reply to topic

The time now is: Today 00:06

All times are GMT + 3 Hours



You cannot post new topics in this forum
You cannot reply to topics in this forum
You cannot edit your posts in this forum
You cannot delete your posts in this forum
You cannot vote in polls in this forum
You cannot attach files in this forum
You cannot download files in this forum