Today is a free download without charge Download

Светофор (5 сезон: 1-10 серии из 20) (2013) SATRip [Обновляемая]

Reply to topic
 
Author
Message

UndegraundMen ®

Longevity: 8 years 9 months

Posts: 25145

Торрент-статистика

Post 13-Feb-2013 07:34

[Quote]

-Светофор (5 сезон: 1-14 серии из 20) (2013) SATRip
«Мужчины бывают трёх типов. Про этих трёх типов мы вам и расскажем»
- Русское название: Светофор
Год выпуска: 2013
Производство: Россия, Yellow, Black&White
Жанр: Комедия
Субтитры: Украинские
Вид субтитров: Вшитые (неотключаемые)
Режиссер: Роман Фокин
Сценарий: Гарри Гупаленко, Константин Иванов, Александр Гаврильчик
Актеры: Ольга Медынич, Джемал Тетруашвили, Дмитрий Миллер, Александр Макогон, Ирина Низина, Сергей Лобынцев, Александр Никольский, Евгения Каверау, Антонина Комиссарова
Описание фильма:
Когда тебе за тридцать, ты вдруг замечаешь, что твоя жизнь похожа на сигналы светофора. Если ты холостяк, для тебя всегда горит зеленый свет, все вокруг в движении, и ты свободно едешь. Куда хочешь. И с кем хочешь. Если ты встречаешься с девушкой, тебе уже мигает желтый свет. С одной стороны, ты еще в движении, а с другой, уже готовишься остановиться. А если ты женат — ты встал на красном. Все изменилось: ты уже не можешь думать только о себе.
Их трое. Им немного за тридцать. Они лучшие друзья, которые всегда придут друг другу на помощь. Вернее, почти всегда. Ведь у каждого из них в жизни есть еще нечто, чему нужно уделять очень много внимания. Это – любовь. Со времен, когда у каждого героя был свой цвет — красный, желтый и зеленый, — многое поменялось. Эдик сбился со счета, коллекционируя девушек на одну ночь. У Паши и Олеси вся жизнь посвящена появлению будущего ребенка. Сева забыл, когда у него в последний раз был секс и был ли он вообще… Но главное осталось прежним: героям все так же хочется побыть хоть чуть-чуть вдали от женщин и все так же редко это у них получается.- -Продолжительность: ~ 00:24:00 серия
Качество видео: SATRip
Видеокодек: XviD
Битрейт видео: ~ 1600 Кбит/сек
Размер кадра: 704x400
Аудио: Русский, МР3, 2 ch, 128 Кбит/с

Внимание! Раздача ведётся путём добавления новых серий. Описание обновления торрента:

Внимание!
Раздача ведётся путём добавления новых серий; при каждом добавлении создётся новый торрент. Чтобы начать докачку новой серии, пользователям необходимо сделать следующее:
(1) остановить скачивание,
(2) удалить старый торрент у себя из клиента (старые серии удалять не надо),
(3) скачать новый торрент и запустить его у себя в клиенте вместо старого, при этом указать клиенту путь в старую папку куда и должно происходить скачивание новых серий.
Ваш клиент при этом должен произвести хеширование (проверку) старой папки (если не производит сам - помогите ему сделать это), и будет докачивать только те серии которых у вас ещё нет. Старые серии при этом не удаляются, а продолжают раздаваться!
Eсли вы уже удалили старые серии, то предотвратить повторную закачку старых серий можно, отжав галочку в соответсвующих местах при запуске нового торрента. По возможности, желательно не удалять старые серии как можно дольше чтобы релизёр не столько продолжал раздавать старые серии, а смог сконцентрироваться на новых.

MediaInfo

Код:
Общее
Полное имя                               : E:\Раздачи\Обновляемые\Светофор [Обновляемая]\Svetofor.(5.sezon.01.seriya).avi
Формат                                   : AVI
Формат/Информация                        : Audio Video Interleave
Размер файла                             : 302 Мбайт
Продолжительность                        : 24 м.
Общий поток                              : 1731 Кбит/сек
Библиотека кодирования                   : VirtualDub build 32842/release
Видео
Идентификатор                            : 0
Формат                                   : MPEG-4 Visual
Профиль формата                          : Advanced [email protected]
Параметр BVOP формата                    : 2
Параметр QPel формата                    : Нет
Параметр GMC формата                     : Без точки перехода
Параметр матрицы формата                 : Default (H.263)
Режим смешивания                         : Сжатый битовый поток
Идентификатор кодека                     : XVID
Идентификатор кодека/Подсказка           : XviD
Продолжительность                        : 24 м.
Битрейт                                  : 1594 Кбит/сек
Ширина                                   : 704 пикселя
Высота                                   : 400 пикселей
Соотношение сторон                       : 16:9
Частота кадров                           : 25,000 кадров/сек
Цветовое пространство                    : YUV
Субдискретизация насыщенности            : 4:2:0
Битовая глубина                          : 8 бит
Тип развёртки                            : Прогрессивная
Метод сжатия                             : С потерями
Бит/(Пиксели*Кадры)                      : 0.226
Размер потока                            : 278 Мбайт (92%)
Библиотека кодирования                   : XviD 64
Аудио
Идентификатор                            : 1
Формат                                   : MPEG Audio
Версия формата                           : Version 1
Профиль формата                          : Layer 3
Режим                                    : Joint stereo
Расширение режима                        : MS Stereo
Идентификатор кодека                     : 55
Идентификатор кодека/Подсказка           : MP3
Продолжительность                        : 24 м.
Вид битрейта                             : Постоянный
Битрейт                                  : 128 Кбит/сек
Каналы                                   : 2 канала
Частота                                  : 48,0 КГц
Метод сжатия                             : С потерями
Размер потока                            : 22,3 Мбайт (7%)
Выравнивание                             : Разделение по промежуткам
Продолжительность промежутка             : 40  мс. (1,00 видеокадр)
Время предзагрузки промежутка            : 500  мс.
Скриншоты:
         
         -Время раздачи: 9.00 - 23.00 (по мере возможности...)
Other forum [Profile] [PM]
Display posts from previous:    
Reply to topic

The time now is: Today 05:37

All times are GMT + 3 Hours



You cannot post new topics in this forum
You cannot reply to topics in this forum
You cannot edit your posts in this forum
You cannot delete your posts in this forum
You cannot vote in polls in this forum
You cannot attach files in this forum
You cannot download files in this forum