Сегодня идет свободное скачивание без начисления Download

Асса (1987) [H.264] DVDRip [Реставрация КП]

Ответить на тему
 
Автор
Сообщение

UndegraundMen ®

Стаж: 5 лет 9 месяцев

Сообщений: 25860

Торрент-статистика

Пост 13-Фев-2013 07:03

[Цитировать]

-Асса (1987) [H.264] DVDRip [Реставрация КП]- Русское название: Асса
Год выпуска: 1987
Жанр: Драма, Мелодрама
Выпущено: СССР, Мосфильм, Студия "Круг"
Описание фильма:
Юная девушка, истосковавшись по яркой и безбедной жизни, связывает свою судьбу с крупным бандитским «авторитетом». Но есть и другая жизнь — птичья, полетная, просквозенная ветром и музыкой, жизнь мальчика Бананана. И две эти жизни трагически сталкиваются…
Режиссер: Сергей Соловьев
Актеры: Виктор Цой, Сергей "Африка" Бугаев, Татьяна Друбич, Станислав Говорухин, Дмитрий Шумилов, Виктор Бешляга, Анита Жуковская, Андрей Халявин, Ирэна Куксенайте, Илья Иванов, Александр Баширов, Герман Шорр, Анатолий Сливников, Светлана Тормахова, Дмитрий Долинин, Сергей Рыженко, Тимур Новиков, Андрей Крисанов, Густав Гурьянов, Кирилл Казаков, Александр Домогаров
Продолжительность: 02:24:24-Рейтинги:
Дата мировой премьеры: 16 сентября 1988
Релиз на DVD (РФ): 1 апреля 2011, «Парадиз Медиа»-Релиз от:
Видеокодек: MPEG 4 AVC/H.264
Размер кадра: 716x476 @ 762x476
Битрейт видео: ~ 1709 Кбит/сек
Качество видео: DVDRip (batonchik)
Источник: Асса (1987) DVD-9
Субтитры: нет
Аудио: AC3, 3/2 (L,C,R,SL,SR) + LFE ch, 448 kbps

H.264 log

--[Information] [28.12.2012 20:50:56] Standard error stream
---[NoImage] raw [info]: 716x476p 2482:2327 @ 25/1 fps (cfr)
---[NoImage] x264 [info]: using SAR=2482/2327
---[NoImage] x264 [info]: using cpu capabilities: MMX2 SSE2Fast SSSE3 FastShuffle SSE4.1 Cache64
---[NoImage] x264 [info]: profile High, level 4.1
---[NoImage]
---[NoImage] x264 [info]: frame I:1001 Avg QP:14.78 size: 46292
---[NoImage] x264 [info]: frame P:43648 Avg QP:17.24 size: 21141
---[NoImage] x264 [info]: frame B:171972 Avg QP:20.42 size: 5129

---[NoImage] x264 [info]: consecutive B-frames: 1.6% 1.2% 4.9% 14.5% 7.0% 67.8% 2.3% 0.3% 0.1% 0.1%
---[NoImage] x264 [info]: mb I I16..4: 9.3% 68.7% 22.1%
---[NoImage] x264 [info]: mb P I16..4: 3.6% 24.5% 5.3% P16..4: 33.3% 17.2% 12.1% 0.8% 0.3% skip: 2.8%
---[NoImage] x264 [info]: mb B I16..4: 0.3% 1.7% 0.2% B16..8: 41.4% 9.1% 2.0% direct: 7.7% skip:37.6% L0:40.7% L1:40.9% BI:18.4%
---[NoImage] x264 [info]: 8x8 transform intra:73.4% inter:68.1%
---[NoImage] x264 [info]: direct mvs spatial:98.3% temporal:1.7%
---[NoImage] x264 [info]: coded y,uvDC,uvAC intra: 82.7% 73.5% 50.7% inter: 24.7% 21.9% 5.8%
---[NoImage] x264 [info]: i16 v,h,dc,p: 40% 14% 13% 33%
---[NoImage] x264 [info]: i8 v,h,dc,ddl,ddr,vr,hd,vl,hu: 20% 14% 11% 6% 9% 10% 9% 10% 11%
---[NoImage] x264 [info]: i4 v,h,dc,ddl,ddr,vr,hd,vl,hu: 23% 16% 7% 6% 9% 11% 9% 9% 9%
---[NoImage] x264 [info]: i8c dc,h,v,p: 28% 31% 27% 14%
---[NoImage] x264 [info]: Weighted P-Frames: Y:8.1% UV:4.9%
---[NoImage] x264 [info]: ref P L0: 44.1% 10.4% 13.3% 10.7% 4.8% 4.4% 3.2% 4.2% 2.1% 2.4% 0.4% 0.0%
---[NoImage] x264 [info]: ref B L0: 84.0% 7.9% 3.1% 1.4% 1.1% 0.9% 0.9% 0.4% 0.2%
---[NoImage] x264 [info]: ref B L1: 95.9% 4.1%
---[NoImage] x264 [info]: kb/s:1709.04
---[NoImage] encoded 216621 frames, 13.61 fps, 1709.04 kb/s
--[Information] Final statistics
---[Information] [28.12.2012 20:50:57] Video Bitrate Desired: 1709 kbit/s

MediaInfo 0.7.57

Общее
Уникальный идентификатор : 186395261627672220633368798703358673577 (0x8C3A6BED106FC301A616F38FCB1582A9)
Полное имя :\ASSA.1987.DVDRip.AVC.NNM-CLUB.mkv
Формат : Matroska
Версия формата : Version 2
Размер файла : 2,18 Гбайт
Продолжительность : 2 ч. 24 м.
Общий поток : 2159 Кбит/сек
Название фильма : ASSA.1987.DVDRip.AVC.NNM-CLUB
Дата кодирования : UTC 2012-12-28 18:23:02
Программа кодирования : mkvmerge v5.8.0 ('No Sleep / Pillow') built on Sep 2 2012 15:37:04
Библиотека кодирования : libebml v1.2.3 + libmatroska v1.3.0
Видео
Идентификатор : 1
Формат : AVC
Формат/Информация : Advanced Video Codec
Профиль формата : [url=mailto:[email protected]][email protected][/url]
Параметр CABAC формата : Да
Параметр ReFrames формата : 10 кадров
Идентификатор кодека : V_MPEG4/ISO/AVC
Продолжительность : 2 ч. 24 м.
Битрейт : 1709 Кбит/сек
Ширина : 716 пикселей
Высота : 476 пикселей
Соотношение сторон : 1,603
Соотношение сторон в оригинале : 1,604
Режим частоты кадров : Постоянный
Частота кадров : 25,000 кадров/сек
Цветовое пространство : YUV
Субдискретизация насыщенности : 4:2:0
Битовая глубина : 8 бит
Тип развёртки : Прогрессивная
Бит/(Пиксели*Кадры) : 0.201
Размер потока : 1,68 Гбайт (77%)
Заголовок : ASSA.1987.DVDRip.AVC.NNM-CLUB
Библиотека кодирования : x264 core 129 r2230 1cffe9f
Настройки программы : cabac=1 / ref=10 / deblock=1:-2:-2 / analyse=0x3:0x133 / me=umh / subme=10 / psy=1 / psy_rd=1.00:0.15 / mixed_ref=1 / me_range=24 / chroma_me=1 / trellis=2 / 8x8dct=1 / cqm=0 / deadzone=21,11 / fast_pskip=0 / chroma_qp_offset=-3 / threads=6 / lookahead_threads=1 / sliced_threads=0 / nr=0 / decimate=1 / interlaced=0 / bluray_compat=0 / constrained_intra=0 / bframes=9 / b_pyramid=2 / b_adapt=2 / b_bias=0 / direct=3 / weightb=1 / open_gop=0 / weightp=2 / keyint=250 / keyint_min=23 / scenecut=40 / intra_refresh=0 / rc_lookahead=40 / rc=2pass / mbtree=1 / bitrate=1709 / ratetol=1.0 / qcomp=0.60 / qpmin=0 / qpmax=69 / qpstep=4 / cplxblur=20.0 / qblur=0.5 / ip_ratio=1.40 / aq=1:1.00
Язык : Russian
Default : Да
Forced : Нет
Аудио
Идентификатор : 2
Формат : AC-3
Формат/Информация : Audio Coding 3
Расширение режима : CM (complete main)
Параметр Endianness формата : Big
Идентификатор кодека : A_AC3
Продолжительность : 2 ч. 24 м.
Вид битрейта : Постоянный
Битрейт : 448 Кбит/сек
Каналы : 6 каналов
Расположение каналов : Front: L C R, Side: L R, LFE
Частота : 48,0 КГц
Битовая глубина : 16 бит
Метод сжатия : С потерями
Размер потока : 463 Мбайт (21%)
Язык : Russian
Default : Да
Forced : Нет
Меню
00:00:00.000 : ru:Chapter 01
00:06:17.760 : ru:Chapter 02
00:11:55.680 : ru:Chapter 03
00:15:50.400 : ru:Chapter 04
00:20:56.640 : ru:Chapter 05
00:26:20.640 : ru:Chapter 06
00:32:18.720 : ru:Chapter 07
00:36:13.440 : ru:Chapter 08
00:42:47.520 : ru:Chapter 09
00:45:21.120 : ru:Chapter 10
00:50:12.480 : ru:Chapter 11
01:04:57.600 : ru:Chapter 12
01:13:00.480 : ru:Chapter 13
01:17:06.240 : ru:Chapter 14
01:22:38.400 : ru:Chapter 15
01:30:02.400 : ru:Chapter 16
01:36:45.120 : ru:Chapter 17
01:42:54.240 : ru:Chapter 18
01:47:33.120 : ru:Chapter 19
01:52:13.920 : ru:Chapter 20
01:55:26.880 : ru:Chapter 21
01:58:03.840 : ru:Chapter 22
02:04:56.640 : ru:Chapter 23
02:17:36.000 : ru:Chapter 24

Знаете ли Вы, что...

Фраза Бананана «Не для денег родившийся футурист Владимир Маяковский» — это упоминание малоизвестного и не сохранившегося фильма Маяковского «Не для денег родившийся» (экранизация романа Мартин Иден).
Крымов цитирует Пушкина.
Основные съемки фильма проходили на натуре в Крыму, в Ялте, часть — в Москве.
Эпизод зимнего купания Крымова и Бананана на самом деле снимался летом. Лед на воде и снег на берегу — искусственные.
Это был первый советский фильм, премьера которого сопровождалась грандиозной театрализованной презентацией, прошедшей в московском ДК МЭЛЗ.
Виниловая пластинка с песнями из фильма, вышедшая на фирме «Мелодия» в 1987 году, стала одним из первых советских официальных изданий отечественной рок-музыки.
Песни «Иду на ты», «Мочалкин блюз» и «Старик Козлодоев», в фильме спетые Сергеем Рыженко, на пластинке звучат в оригинальном исполнении Бориса Гребенщикова.
Монолог «Майора» о Гагарине — чистая импровизация актёра Александра Баширова.
В кинотеатре Алика и Бананан смотрят фильм «Easy street» («Тихая улица») с участием Чарли Чаплина.
Скриншоты:

       
       

Время раздачи: круглогодичноИграю на аккордеоне за "Спасибо"
Вне форума [Профиль] [ЛС]

uschakov.yura

Пол:

Стаж: 6 лет 6 месяцев

Сообщений: 523

Откуда: Рыбинск Ярославской области

Торрент-статистика

Пост 04-Июн-2013 00:18 (спустя 3 месяца 18 дней)

[Цитировать]

UndegraundMen,
Спасибо, смотрел фильм давно, но с удивлением обнаружил для себя, что фильм действительно ходит в классику отечественных фильмов.

_________________
uschakov.yura
Вне форума [Профиль] [ЛС]
Показать сообщения:    
Ответить на тему

Текущее время: Сегодня 14:58

Часовой пояс: GMT + 3



Вы не можете начинать темы
Вы не можете отвечать на сообщения
Вы не можете редактировать свои сообщения
Вы не можете удалять свои сообщения
Вы не можете голосовать в опросах
Вы не можете прикреплять файлы к сообщениям
Вы не можете скачивать файлы