Сегодня идет свободное скачивание без начисления Download

Романс о влюбленных (1974) [H.264] DVDRip

Ответить на тему
 
Автор
Сообщение

UndegraundMen ®

Стаж: 5 лет 9 месяцев

Сообщений: 25860

Торрент-статистика

Пост 13-Фев-2013 07:03

[Цитировать]

-Романс о влюбленных (1974) DVDRip- Русское название: Романс о влюбленных
Год выпуска: 1974
Жанр: Мелодрама, драма, мьюзикл
Описание фильма:
Необычный в жанровом отношении, открывающий новые стилевые возможности кино, этот поэтический фильм стал заметным явлением в отечественном искусстве 70-х.
В нем рассказана простая и в то же время пронзительно-драматическая история любви двух молодых людей, которых разлучает случай.
И хотя они продолжают любить друг друга - оказывается, что это разлука навсегда...
Режиссер: Андрей Михалков-Кончаловский
Актеры: Евгений Киндинов, Елена Коренева, Ирина Купченко, Иннокентий Смоктуновский, Елизавета Солодова, Ия Саввина, Владимир Конкин, Александр Збруев, Роман Громадский, Николай Гринько, Иван Рыжов, Александр Самойлов.
Продолжительность: 02:07:18

Видеокодек: MPEG-4 AVC/H.264
Битрейт видео: ~2197 Кбит/сек
Размер кадра: 714х428
Качество видео: DVDRip
Аудиокодек: AC3 5.1
Битрейт аудио: 448 Кбит/сек

MediaInfo

Общее
Уникальный идентификатор : 246115233771197024938795896031122750667 (0xB92811E19F725BC9905A8367459EFCCB)
Полное имя : G:\_Reliz\Romans o vlyublennyh.1974.DVDRip-AVC.[/*spam*/]\01.serya.Romans o vlyublennyh.1974.DVDRip-AVC.h264.almikl.mkv
Формат : Matroska
Версия формата : Version 2
Размер файла : 1,20 Гбайт
Продолжительность : 1 ч. 4 м.
Общий поток : 2646 Кбит/сек
Дата кодирования : UTC 2013-02-04 07:04:25
Программа кодирования : mkvmerge v5.8.0 ('No Sleep / Pillow') built on Sep 2 2012 15:37:04
Библиотека кодирования : libebml v1.2.3 + libmatroska v1.3.0
Видео
Идентификатор : 1
Формат : AVC
Формат/Информация : Advanced Video Codec
Профиль формата : [url=mailto:[email protected]][email protected][/url]
Параметр CABAC формата : Да
Параметр ReFrames формата : 6 кадров
Идентификатор кодека : V_MPEG4/ISO/AVC
Продолжительность : 1 ч. 4 м.
Битрейт : 2197 Кбит/сек
Ширина : 714 пикселей
Высота : 428 пикселей
Соотношение сторон : 2,40:1
Соотношение сторон в оригинале : 2,40:1
Режим частоты кадров : Постоянный
Частота кадров : 25,000 кадров/сек
Цветовое пространство : YUV
Субдискретизация насыщенности : 4:2:0
Битовая глубина : 8 бит
Тип развёртки : Прогрессивная
Бит/(Пиксели*Кадры) : 0.288
Размер потока : 995 Мбайт (81%)
Библиотека кодирования : x264 core 129 r2230 1cffe9f
Настройки программы : cabac=1 / ref=6 / deblock=1:-1:-1 / analyse=0x3:0x113 / me=umh / subme=10 / psy=1 / psy_rd=1.00:0.15 / mixed_ref=1 / me_range=32 / chroma_me=1 / trellis=2 / 8x8dct=1 / cqm=0 / deadzone=21,11 / fast_pskip=1 / chroma_qp_offset=-3 / threads=12 / lookahead_threads=2 / sliced_threads=0 / nr=0 / decimate=1 / interlaced=0 / bluray_compat=0 / constrained_intra=0 / bframes=10 / b_pyramid=2 / b_adapt=2 / b_bias=0 / direct=1 / weightb=1 / open_gop=0 / weightp=2 / keyint=250 / keyint_min=25 / scenecut=40 / intra_refresh=0 / rc_lookahead=40 / rc=2pass / mbtree=1 / bitrate=2197 / ratetol=1.0 / qcomp=0.60 / qpmin=10 / qpmax=51 / qpstep=4 / cplxblur=20.0 / qblur=0.5 / ip_ratio=1.40 / aq=1:1.00
Default : Да
Forced : Нет
Аудио
Идентификатор : 2
Формат : AC-3
Формат/Информация : Audio Coding 3
Расширение режима : CM (complete main)
Параметр Endianness формата : Big
Идентификатор кодека : A_AC3
Продолжительность : 1 ч. 4 м.
Вид битрейта : Постоянный
Битрейт : 448 Кбит/сек
Каналы : 6 каналов
Расположение каналов : Front: L C R, Side: L R, LFE
Частота : 48,0 КГц
Битовая глубина : 16 бит
Метод сжатия : С потерями
Размер потока : 208 Мбайт (17%)
Default : Да
Forced : Нет
Скриншоты:                    Время раздачи: 24/7, до 10 скачавших-Релиз-группа: by almikl ®-Все релизы Романс о влюбленных на NNM-CLUB-
Вне форума [Профиль] [ЛС]

uschakov.yura

Пол:

Стаж: 6 лет 6 месяцев

Сообщений: 523

Откуда: Рыбинск Ярославской области

Торрент-статистика

Пост 13-Мар-2013 17:11 (спустя 1 месяц)

[Цитировать]

Уважаемые релизёры, уважайте желание пользователей ознакомиться с представленным материалом, а то поиск пиров подключение к пирам до бесконечности долго (пробовал подключаться к пирам в течении суток, скачал 0), хотя этот фильм помню с школьного детства и хотел пересмотреть.
Добавлено спустя 6 минут 8 секунд:
Простите, я забыл сказать главное слово - пожалуйста.
Добавлено спустя 2 часа 31 минута 14 секунд:
UndegraundMen, Спасибо

_________________
uschakov.yura
Вне форума [Профиль] [ЛС]

uschakov.yura

Пол:

Стаж: 6 лет 6 месяцев

Сообщений: 523

Откуда: Рыбинск Ярославской области

Торрент-статистика

Пост 15-Апр-2013 21:31 (спустя 1 месяц 2 дня)

[Цитировать]

Спасибо, скачал, ... печальной будет эта песня, о том ...
Добавлено спустя 9 минут 45 секунд:
Это почему то у Вас написано, скачан 0 раз, но я скачал и спасибо.

_________________
uschakov.yura
Вне форума [Профиль] [ЛС]
Похожие темы
Форум Тема Автор Торрент Отв. Посл. сообщение
./templates/default/images/folder_dl.gif Психология, Тренинг, Саморазвитие Микаэль Крогерус, Роман Чеппелер | Книга решений. 50 моделей стратегического мышления (2015) [FB2] Omen
1 | 0

0 | 951

16

2015-07-11 13:26
Omen Последнее
./templates/default/images/folder_dl.gif Обучающее видео Роман Ерин | Гитарная революция. Полный пакет (2015) CamRip [H.264/720p] Omen
1 | 0

0 | 1282

31

2015-10-11 23:55
Omen Последнее
./templates/default/images/folder_dl.gif Фильмы 2011-2016 Без границ (Карен Оганесян, Резо Гигинеишвили, Роман Прыгунов) [2015 г., комедия, мелодрама, WEBDL 720p] Theseus
1 | 0

1 | 1375

14

2016-01-02 08:16
Dracula Последнее
./templates/default/images/folder_dl.gif Фантастика, фэнтези, ужасы, мистика Владимир Стрельников | Приключения Василия Ромашкина, бортстрелка и некроманта (2016) [FB2] moralis
1 | 0

0 | 1625

15

2016-04-24 21:58
moralis Последнее
./templates/default/images/folder_dl.gif Обучающее видео Роман Карпухин | Как зарабатывать на бурении скважин (2015) HDTVRip [H.264] }{@R0N
1 | 0

0 | 1581

23

2016-10-24 23:28
}{@R0N Последнее
./templates/default/images/folder_dl.gif Фантастика, фэнтези, ужасы, мистика Роман Шатский | Цикл «Вселенная в Огне» [4 книги] (2017-2018) [FB2] }{@R0N
1 | 0

0 | 515

7

2018-06-19 18:19
}{@R0N Последнее
Показать сообщения:    
Ответить на тему

Текущее время: Сегодня 15:49

Часовой пояс: GMT + 3



Вы не можете начинать темы
Вы не можете отвечать на сообщения
Вы не можете редактировать свои сообщения
Вы не можете удалять свои сообщения
Вы не можете голосовать в опросах
Вы не можете прикреплять файлы к сообщениям
Вы не можете скачивать файлы